Формула 1. Сезон 2018. Етап 15. Гран-Прі Сингапуру. 1,2 практика (14.09.2018) HDTV 1080i

Нові коментарі

Нова тема   Відповісти
Автор Повідомлення
sergiyko.5 
VIP


З нами з: 25.02.16
Востаннє: 16.11.18
Повідомлень: 1884

2018-09-14 12:26  
Формула 1. Сезон 2018. Етап 15. Гран-Прі Сингапуру. 1,2 практика (14.09.2018) HDTV 1080i

Формула 1. Сезон 2018. Етап 15. Гран-Прі Сингапуру. 1,2 практика (14.09.2018) HDTV 1080i

Жанр: Перегони Формула 1
Країна: Сингапур
Телеканал: Перший автомобільний
Коментатор: Павло Воробйов

Опис:
Перша та друга практики п'ятнадцятого сезону Гран-Прі Сингапуру 2018 року відбулась 14 вересня 2018 року о 12 годині та 16:30 за київським часом.


Тривалість: 01:28:54 + 01:37:05
Якість: HDTV

Відео:кодек: розмір кадру: 1920 х 1080 бітрейт: 4880 кб/с
Аудіо: мова: українська кодек: 2.0 бітрейт: 128 кб/с

Додаткова інформація: на початку трансляції першої та при кінці другої практики відсутні декілька хвилин запису. Якість всього запису посередня.
Про файл:
General
Unique ID : 28065505063239185399041463657815569243 (0x151D383BACBC4A01CCF65C3290AB735B)
Complete name : D:\Torrents\SPORT\Formula 1\F1.2018.15.Singapore.Practice.1080i.HDTV\F1.2018.15.Singapore.Practice.1.1080i.HDTV.
Format :
Format version : Version 4 / Version 2
File size : 3.42 GiB
Duration : 1 h 28 min
Overall bit rate : 5 506 kb/s
Encoded date : UTC 2018-09-14 10:19:17
Writing application : v26.0.0 ('In The Game') 64-bit
Writing library : libebml v1.3.6 + v1.4.9

Video
ID : 1
Format : AVC
Format/Info : Advanced Video Codec
Format profile : [email protected]
Format settings : CABAC / 4 Ref Frames
Format settings, CABAC : Yes
Format settings, ReFrames : 4 frames
Codec ID : V_MPEG4/ISO/AVC
Duration : 1 h 28 min
Bit rate : 5 378 kb/s
Width : 1 920 pixels
Height : 1 080 pixels
Display aspect ratio : 16:9
Frame rate mode : Constant
Frame rate : 25.000 FPS
Standard : Component
Color space : YUV
Chroma subsampling : 4:2:0
Bit depth : 8 bits
Scan type : MBAFF
Scan type, store method : Interleaved fields
Scan order : Top Field First
Bits/(Pixel*Frame) : 0.104
Stream size : 3.34 GiB (98%)
Title : F1 2018 15 Singapore Practice 1
Language : English
Default : Yes
Forced : No
Color range : Limited
Color primaries : BT.709
Transfer characteristics : BT.709
Matrix coefficients : BT.709

Audio
ID : 2
Format :
Format/Info : Advanced Audio Codec
Format profile : LC
Codec ID : A_AAC-2
Duration : 1 h 28 min
Bit rate : 125 kb/s
Channel(s) : 2 channels
Channel positions : Front: L R
Sampling rate : 48.0 kHz
Frame rate : 46.875 FPS (1024 SPF)
Compression mode : Lossy
Stream size : 79.7 MiB (2%)
Title : Павло Воробйов
Language : Ukrainian
Default : Yes
Forced : No
Скріншоти:


Автор запису: sergiyko


 Трекер:    Зареєстрований   

Завантажити / скачати торрент



відео для новачків



 Зареєстрований:   2018-09-14 16:20
 Розмір:   7.07 GB 
 Оцінка:   8.5/10 (Голосів: 6)
   
sergiyko.5 
VIP


З нами з: 25.02.16
Востаннє: 16.11.18
Повідомлень: 1884

2018-09-15 16:23  
Квалу зможу залити після 21, якщо нормально записалось, сам на роботі.
govjadina 
Новенький


З нами з: 27.08.18
Востаннє: 12.11.18
Повідомлень: 1

2018-09-15 16:39  
sergiyko.5
будемо чекати з нетерпінням, всюди спойлери Muted Muted

quick_shot 
Новенький


З нами з: 30.09.16
Востаннє: 11.11.18
Повідомлень: 7

2018-09-15 18:26  
sergiyko.5
Почекаєм))

Ваш часовий пояс: GMT + 2 Години

Нова тема   Відповісти