Лос-Анджелеська історія / L.A. Story (1991) 720p Ukr/Eng | Sub Eng

Нові коментарі

Нова тема   Відповісти
Автор Повідомлення
Anonymous 







2018-09-14 10:59  
Лос-Анджелеська історія / L.A. Story (1991) 720p Ukr/Eng | Sub Eng

Лос-Анджелеська історія / L.A. Story (1991) 720p Ukr/Eng | Sub Eng
Альтернативний постер:



Жанр: драма, комедія, мелодрама, фентезі
Країна: США



Кінокомпанія: Carolco Pictures Inc., IndieProd Company Productions, L.A. Films
Режисер: Мік Джексон
Актори: Стів Мартін, Вікторія Теннант, Річард Е. Грант, Марілу Хеннер, Сара Джессіка Паркер, С'юзен Форрістал, Кевін Поллак, Сем МакМюррей, Патрік Стюарт, Ендрю Амадор, Тайм Уінтерс, Томмі Хінклі, Френсіс Фішер, Ларрі Міллер, Джон Літгоу, Вуді Харрельсон, Джейм Гомез

Сюжет:
«Людині настрою» — синоптику Гаррісу — набридла робота на телебаченні, божевільні ритми Лос-Анджелеса і взагалі все на світі. Єдина радість — романтична зустріч з англійською журналісткою, яка повертає йому любов до життєрадісного хаосу великого міста.


Тривалість: 01:31:22
Якість: 720p
Відео:
кодек:
розмір кадру: 1280x694
бітрейт: 6818 кб/с

Аудіо # 1:
мова: українська
переклад: двоголосий закадровий
кодек: 2.0
бітрейт: 192 кб/с

Аудіо # 2:
мова: англійська
переклад: оригінал
кодек: 5.1
бітрейт: 448 кб/с

Субтитри:
мова: англійська
тип: програмні (м'які)
формат: *.srt
Info
General
Unique ID : 178101351216981451510928538671704859571 (0x85FD12924618A354856F28BCB94663B3)
Format :
Format version : Version 4 / Version 2
File size : 4.86 GiB
Duration : 1 h 31 min
Overall bit rate : 7 609 kb/s
Encoded date : UTC 2018-09-14 07:54:56
Writing application : v6.1.0 ('Old Devil') built on Mar 4 2013 09:10:42
Writing library : libebml v1.3.0 + v1.4.0

Video
ID : 1
Format : AVC
Format/Info : Advanced Video Codec
Format profile : [email protected]
Format settings : CABAC / 9 Ref Frames
Format settings, CABAC : Yes
Format settings, ReFrames : 9 frames
Codec ID : V_MPEG4/ISO/AVC
Duration : 1 h 31 min
Bit rate : 6 818 kb/s
Width : 1 280 pixels
Height : 694 pixels
Display aspect ratio : 1.85:1
Frame rate mode : Constant
Frame rate : 25.000 FPS
Color space : YUV
Chroma subsampling : 4:2:0
Bit depth : 8 bits
Scan type : Progressive
Bits/(Pixel*Frame) : 0.307
Stream size : 4.35 GiB (90%)
Writing library : core 146 r2538 121396c
Encoding settings : cabac=1 / ref=9 / deblock=1:-3:-3 / analyse=0x3:0x133 / me=umh / subme=10 / psy=1 / psy_rd=1.05:0.00 / mixed_ref=1 / me_range=16 / chroma_me=1 / trellis=2 / 8x8dct=1 / cqm=0 / deadzone=21,11 / fast_pskip=0 / chroma_qp_offset=-2 / threads=12 / lookahead_threads=2 / sliced_threads=0 / nr=0 / decimate=0 / interlaced=0 / bluray_compat=0 / constrained_intra=0 / bframes=9 / b_pyramid=2 / b_adapt=2 / b_bias=0 / direct=3 / weightb=1 / open_gop=0 / weightp=2 / keyint=250 / keyint_min=25 / scenecut=40 / intra_refresh=0 / rc=crf / mbtree=0 / crf=17.0 / qcomp=0.60 / qpmin=0 / qpmax=69 / qpstep=4 / ip_ratio=1.40 / pb_ratio=1.30 / aq=3:0.70 / zones=131693,137057,crf=22
Language : English
Default : Yes
Forced : No
Statistics Tags Issue : v8.3.0 ('Over the Horizon') 32bit 2015-11-16 22:43:04 / v6.1.0 ('Old Devil') built on Mar 4 2013 09:10:42 2018-09-14 07:54:56
FromStats_BitRate : 6967053
FromStats_Duration : 01:31:22.320000000
FromStats_FrameCount : 137058
FromStats_StreamSize : 4774452262

Audio #1
ID : 2
Format : AC-3
Format/Info : Audio Coding 3
Codec ID : A_AC3
Duration : 1 h 31 min
Bit rate mode : Constant
Bit rate : 192 kb/s
Channel(s) : 2 channels
Channel positions : Front: L R
Sampling rate : 48.0 kHz
Frame rate : 31.250 FPS (1536 SPF)
Bit depth : 16 bits
Compression mode : Lossy
Stream size : 125 MiB (3%)
Title : UKR (1+1)
Language : Ukrainian
Service kind : Complete Main
Default : Yes
Forced : Yes

Audio #2
ID : 3
Format : AC-3
Format/Info : Audio Coding 3
Codec ID : A_AC3
Duration : 1 h 31 min
Bit rate mode : Constant
Bit rate : 448 kb/s
Channel(s) : 6 channels
Channel positions : Front: L C R, Side: L R, LFE
Sampling rate : 48.0 kHz
Frame rate : 31.250 FPS (1536 SPF)
Bit depth : 16 bits
Compression mode : Lossy
Stream size : 293 MiB (6%)
Title : ENG
Language : English
Service kind : Complete Main
Default : No
Forced : No
Statistics Tags Issue : v8.3.0 ('Over the Horizon') 32bit 2015-11-16 22:43:04 / v6.1.0 ('Old Devil') built on Mar 4 2013 09:10:42 2018-09-14 07:54:56
FromStats_BitRate : 448000
FromStats_Duration : 01:31:22.272000000
FromStats_FrameCount : 171321
FromStats_StreamSize : 307007232

Text
ID : 4
Format : UTF-8
Codec ID : S_TEXT/UTF8
Codec ID/Info : UTF-8 Plain Text
Language : English
Default : No
Forced : No
Statistics Tags Issue : v8.3.0 ('Over the Horizon') 32bit 2015-11-16 22:43:04 / v6.1.0 ('Old Devil') built on Mar 4 2013 09:10:42 2018-09-14 07:54:56
FromStats_BitRate : 55
FromStats_Duration : 01:24:08.517000000
FromStats_FrameCount : 936
FromStats_StreamSize : 35026

Menu
00:00:00.000 : :
00:10:44.000 : :
00:19:56.000 : :
00:29:49.000 : :
00:39:32.000 : :
00:46:34.000 : :
00:50:27.000 : :
01:00:41.000 : :
01:10:00.000 : :
01:16:00.000 : :
01:20:34.000 : :
01:27:49.000 : :
Скріншоти









За українську доріжку подяка п.: karvai0, SweetN, Bulka27
Особиста подяка пану denixx за надану матеріальну допомогу на підтримку цього і майбутніх релізів.
Джерело:


Срібний реліз (на рейтинг впливає 50% завантаженого)
 Трекер:    Зареєстрований   

Завантажити / скачати фільм українською



відео для новачків



 Зареєстрований:   2018-09-14 10:59
 Розмір:   4.86 GB 
 Оцінка фільму:   10/10 (Голосів: 1)
   
Інші релізи
   Лос-Анджелеська історія / L.A. Story (1991) Bulka27  3 / 0   1.16 GB   2011-04-24 20:50 
+380954897458 
Свій


З нами з: 02.06.17
Востаннє: 20.10.18
Повідомлень: 73

2018-09-14 17:53  
Чудова романтична комедія. "Все життя я був нещасний, але я цього не знав, бо був такий щасливий!"
VitNi 
Свій


З нами з: 05.05.12
Востаннє: 21.10.18
Повідомлень: 97

2018-09-21 16:22  
Клас фільм... Happy
Ваш часовий пояс: GMT + 2 Години

Нова тема   Відповісти