Принцеса і жаба / The Princess and the Frog (2009) AVC Ukr/Eng | Sub Ukr/Eng

Нові коментарі

Нова тема   Відповісти
Автор Повідомлення
staf777 
Попереджень: 1
Попереджень: 1 


З нами з: 16.11.16
Востаннє: 19.11.18
Повідомлень: 1756

2018-09-14 09:47  
Принцеса і жаба / The Princess and the Frog (2009) AVC Ukr/Eng | Sub Ukr/Eng


Ще постер

Принцеса і жаба / The Princess and the Frog (2009) AVC Ukr/Eng | Sub Ukr/Eng

Жанр: сімейний, фентезі, мюзикл, романтичний
Країна: США



Кіностудія / кінокомпанія: Walt Disney Animation Studios
Режисер: Рон Клементс, Джон Маскер
Сюжет:
«Принцеса і Жаба» - це стара казка на новий лад від студії Діснея.
У сучасній історії за мотивами улюбленної казки події відбуваються у Новому Орлеані, батьківщині джазу. Головні герої - прекрасна принцеса та принц, якого перетворили на жабу. Щоб знову стати людиною, йому потрібен лише один поцілунок...Тільки тут ви побачите співочого крокодила, кумедного світлячка та багато чого іншого!


Тривалість: 01:37:27
Якість: AVC
Відео:
кодек:
розмір кадру: 1024x576
бітрейт: 2318 кб/с

Аудіо #1:
мова: українська
переклад: професійний дубльований
кодек: 5.1
бітрейт: 448 кб/с

Аудіо #2:
мова: англійська
переклад: оригінал
кодек: 5.1
бітрейт: 384 кб/с

Субтитри:
мова: українська
тип: програмні (м'які)
формат: *.srt

Субтитри:
мова: англійська
тип: програмні (м'які)
формат: *.srt
Info
General
Unique ID : 226410379176138686883352547498431897026 (0xAA550D8AB171A90E5FC76BE2F3285DC2)
Complete name : S:\Мультфільми AVC\The Princess and the Frog [2009] AVC [UKR_ENG] [Hurtom].
Format :
Format version : Version 4 / Version 2
File size : 2.15 GiB
Duration : 1 h 37 min
Overall bit rate : 3 154 kb/s
Movie name : The Princess and the Frog [2009] AVC [UKR_ENG] [Hurtom]
Encoded date : UTC 2018-09-20 17:54:46
Writing application : v24.0.0 ('Beyond The Pale') 64-bit
Writing library : libebml v1.3.6 + v1.4.9
Cover : Yes
Attachments : cover.png

Video
ID : 1
Format : AVC
Format/Info : Advanced Video Codec
Format profile : [email protected]
Format settings : CABAC / 12 Ref Frames
Format settings, CABAC : Yes
Format settings, ReFrames : 12 frames
Codec ID : V_MPEG4/ISO/AVC
Duration : 1 h 37 min
Bit rate : 2 318 kb/s
Width : 1 024 pixels
Height : 576 pixels
Display aspect ratio : 16:9
Frame rate mode : Constant
Frame rate : 23.976 (24000/1001) FPS
Color space : YUV
Chroma subsampling : 4:2:0
Bit depth : 8 bits
Scan type : Progressive
Bits/(Pixel*Frame) : 0.164
Stream size : 1.58 GiB (74%)
Title : Rip by 0ptimus
Writing library : core 129 r2245 bc13772
Encoding settings : cabac=1 / ref=12 / deblock=1:-3:-3 / analyse=0x3:0x113 / me=umh / subme=11 / psy=1 / psy_rd=1.00:0.20 / mixed_ref=1 / me_range=48 / chroma_me=1 / trellis=2 / 8x8dct=1 / cqm=0 / deadzone=21,11 / fast_pskip=0 / chroma_qp_offset=-3 / threads=4 / lookahead_threads=1 / sliced_threads=0 / nr=0 / decimate=0 / interlaced=0 / bluray_compat=0 / constrained_intra=0 / bframes=9 / b_pyramid=2 / b_adapt=2 / b_bias=0 / direct=3 / weightb=1 / open_gop=0 / weightp=2 / keyint=240 / keyint_min=23 / scenecut=40 / intra_refresh=0 / rc_lookahead=40 / rc=2pass / mbtree=0 / bitrate=2318 / ratetol=1.0 / qcomp=0.60 / qpmin=0 / qpmax=69 / qpstep=4 / cplxblur=20.0 / qblur=0.5 / vbv_maxrate=50000 / vbv_bufsize=50000 / nal_hrd=none / ip_ratio=1.40 / pb_ratio=1.30 / aq=1:1.00
Language : English
Default : Yes
Forced : Yes

Audio #1
ID : 2
Format : AC-3
Format/Info : Audio Coding 3
Codec ID : A_AC3
Duration : 1 h 37 min
Bit rate mode : Constant
Bit rate : 448 kb/s
Channel(s) : 6 channels
Channel positions : Front: L C R, Side: L R, LFE
Sampling rate : 48.0 kHz
Frame rate : 31.250 FPS (1536 SPF)
Bit depth : 16 bits
Compression mode : Lossy
Stream size : 312 MiB (14%)
Title : [UA-DUB]
Language : Ukrainian
Service kind : Complete Main
Default : Yes
Forced : Yes

Audio #2
ID : 3
Format : AC-3
Format/Info : Audio Coding 3
Codec ID : A_AC3
Duration : 1 h 37 min
Bit rate mode : Constant
Bit rate : 384 kb/s
Channel(s) : 6 channels
Channel positions : Front: L C R, Side: L R, LFE
Sampling rate : 48.0 kHz
Frame rate : 31.250 FPS (1536 SPF)
Bit depth : 16 bits
Compression mode : Lossy
Stream size : 268 MiB (12%)
Language : English
Service kind : Complete Main
Default : No
Forced : No

Text #1
ID : 4
Format : UTF-8
Codec ID : S_TEXT/UTF8
Codec ID/Info : UTF-8 Plain Text
Duration : 1 h 29 min
Bit rate : 112 b/s
Count of elements : 1327
Stream size : 74.0 KiB (0%)
Language : Ukrainian
Default : No
Forced : No

Text #2
ID : 5
Format : UTF-8
Codec ID : S_TEXT/UTF8
Codec ID/Info : UTF-8 Plain Text
Duration : 1 h 29 min
Bit rate : 72 b/s
Count of elements : 1309
Stream size : 47.5 KiB (0%)
Language : English
Default : No
Forced : No

Menu
00:00:00.000 : :1. "There's Magic in the Air Tonight"
00:03:57.779 : :2. James' Dream
00:07:16.435 : :3. "Down in New Orleans"
00:12:05.391 : :4. "Almost There"
00:17:45.481 : :5. Dr. Facilier's Voodoo Emporium/"Friends on the Other Side"
00:22:04.698 : :6. The Masquerade Ball
00:26:47.188 : :7. The Frog Prince
00:31:22.046 : :8. Nightime in the Bayou
00:35:49.105 : :9. Meet Louis/"When We're Human"
00:41:11.802 : :10. Journey to Mama Odie's
00:44:30.584 : :11. Ray Shows the Way/"Gonna Take You There"
00:50:37.868 : :12. Frog Hunters
00:54:52.956 : :13. Learning From Each Other/"Ma Belle Evangeline"
01:00:08.771 : :14. "Dig a Little Deeper"
01:07:21.495 : :15. A Froggy Proposal
01:13:34.534 : :16. Mardi Gras Parade
01:21:50.697 : :17. A Kiss From a Princess
01:24:23.766 : :18. Farewell to a Friend
01:27:06.637 : :19. A Bayou Wedding/"Down in New Orleans (Finale)"
01:30:28.422 : :20. Closing Credits
Скріншоти






Джерело:
Принцеса і жаба / The Princess and the Frog (2009) AVC Ukr/Eng | Sub Ukr/Eng


Принцеса і жаба / The Princess and the Frog (2009) AVC Ukr/Eng | Sub Ukr/Eng


 Трекер:    Зареєстрований   

Завантажити / скачати мультфільм українською



відео для новачків



 Зареєстрований:   2018-09-20 21:11
 Розмір:   2.15 GB 
 Оцінка мультфільму:   9/10 (Голосів: 10)
   
igor911 
Відео Гуртом
Відео Гуртом


З нами з: 18.01.08
Востаннє: 19.11.18
Повідомлень: 11424

2018-09-14 11:37  
З блурея треба взяти якісніший звук, 448 кб/с.
380983801076 
Поважний учасник


З нами з: 30.03.12
Востаннє: 18.11.18
Повідомлень: 153

2018-09-14 12:42  
Барбі вже не та)))
bot 
робот


З нами з: 30.09.07
Востаннє: 26.05.05
Повідомлень: 20169

2018-09-20 21:11  
Тему перенесено з Анонси релізів до форуму Мультфільми


staf777

Віктор Багряний 
VIP


З нами з: 20.08.12
Востаннє: 17.11.18
Повідомлень: 372

2018-09-22 09:03  
толерастія рулює
tetna 
VIP


З нами з: 21.11.14
Востаннє: 19.11.18
Повідомлень: 541

2018-09-29 17:41  
дуже гарний мульт!
Ваш часовий пояс: GMT + 2 Години

Нова тема   Відповісти