Механік / The Mechanic (2011) Remux 1080p 2xUkr/Eng | Sub Eng [US Transfer]

Нові коментарі

Нова тема   Відповісти
Автор Повідомлення
kryk-v.ya. 
Попереджень: 1
Попереджень: 1 


З нами з: 14.02.14
Востаннє: 23.09.20
Повідомлень: 2242

2018-09-13 20:30  
Механік / The Mechanic (2011) Remux 1080p 2xUkr/Eng | Sub Eng [US Transfer]

Механік / The Mechanic (2011) Remux 1080p 2xUkr/Eng | Sub Eng [US Transfer]


Жанр: бойовик, трилер, кримінальний
Країна: США



Кінокомпанія: Millenium Films
Режисер: Саймон Вест
Актори: Джейсон Стетем, Бен Фостер, Міні Анден, Тоні Голдвін, Дональд Сазерленд, Кріста Кемпбелл

Сюжет:
Професійний вбивця, що працює на якусь кримінальну організацію, планує віддалитися від справ і бере в учні сина однієї зі своїх жертв. Учень прагне пізнати всі премудрощі професії і зайняти місце в злочинній ієрархії. Але бандитські угрупування нікого просто так не відпускають.


Тривалість: 01:32:43
Якість: Remux 1080p [US Transfer]
Відео:
кодек:
розмір кадру: 1920х1080
бітрейт: 27.9 Mbit/с

Аудіо # 1:
мова: українська
переклад: багатоголосий закадровий |
кодек: 2.0 (18 kHz)
бітрейт: 192 кб/с
Примітка: з нового запису DVB-T2 28.06.2020

Аудіо # 2:
мова: українська
переклад: багатоголосий закадровий |
кодек: 2.0
бітрейт: 192 кб/с

Аудіо # 3:
мова: англійська
переклад: оригінал
кодек: -HD MA 5.1
бітрейт: 3998 кб/с

Субтитри:
мова: англійська
тип: програмні (м'які)
формат: *.srt
Info
General
Unique ID : 307224165589236637633673834417841338535 (0xE72138D5F5BD91889C6BD086874178A7)
Complete name : E:\The Mechanic (2011) Remux 1080p (Hurtom).
Format :
Format version : Version 4
File size : 20.9 GiB
Duration : 1 h 32 min
Overall bit rate mode : Variable
Overall bit rate : 32.3 Mb/s
Encoded date : UTC 2020-06-28 16:26:07
Writing application : v25.0.0 ('Prog Noir') 64-bit
Writing library : libebml v1.3.6 + v1.4.9
Cover : Yes
Attachments : cover.jpg

Video
ID : 1
Format : AVC
Format/Info : Advanced Video Codec
Format profile : [email protected]
Format settings : CABAC / 2 Ref Frames
Format settings, CABAC : Yes
Format settings, Reference fra : 2 frames
Codec ID : V_MPEG4/ISO/AVC
Duration : 1 h 32 min
Bit rate mode : Variable
Bit rate : 27.9 Mb/s
Width : 1 920 pixels
Height : 1 080 pixels
Display aspect ratio : 16:9
Frame rate mode : Constant
Frame rate : 23.976 (24000/1001) FPS
Color space : YUV
Chroma subsampling : 4:2:0
Bit depth : 8 bits
Scan type : Progressive
Bits/(Pixel*Frame) : 0.561
Stream size : 18.1 GiB (86%)
Default : Yes
Forced : No

Audio #1
ID : 2
Format : AC-3
Format/Info : Audio Coding 3
Commercial name : Dolby Digital
Codec ID : A_AC3
Duration : 1 h 32 min
Bit rate mode : Constant
Bit rate : 192 kb/s
Channel(s) : 2 channels
Channel layout : L R
Sampling rate : 48.0 kHz
Frame rate : 31.250 FPS (1536 SPF)
Bit depth : 16 bits
Compression mode : Lossy
Stream size : 127 MiB (1%)
Title : MVO-Novy, ICTV
Language : Ukrainian
Service kind : Complete Main
Default : Yes
Forced : No

Audio #2
ID : 3
Format : AC-3
Format/Info : Audio Coding 3
Commercial name : Dolby Digital
Codec ID : A_AC3
Duration : 1 h 32 min
Bit rate mode : Constant
Bit rate : 192 kb/s
Channel(s) : 2 channels
Channel layout : L R
Sampling rate : 48.0 kHz
Frame rate : 31.250 FPS (1536 SPF)
Bit depth : 16 bits
Compression mode : Lossy
Stream size : 127 MiB (1%)
Title : MVO-1+1
Language : Ukrainian
Service kind : Complete Main
Default : No
Forced : No

Audio #3
ID : 4
Format : XLL
Format/Info : Digital Theater Systems
Commercial name : -HD Master Audio
Codec ID : A_DTS
Duration : 1 h 32 min
Bit rate mode : Variable
Bit rate : 3 998 kb/s
Channel(s) : 6 channels
Channel layout : C L R Ls Rs LFE
Sampling rate : 48.0 kHz
Frame rate : 93.750 FPS (512 SPF)
Bit depth : 24 bits
Compression mode : Lossless
Stream size : 2.59 GiB (12%)
Title : Original
Language : English
Default : No
Forced : No

Text
ID : 5
Format : UTF-8
Codec ID : S_TEXT/UTF8
Codec ID/Info : UTF-8 Plain Text
Duration : 1 h 27 min
Bit rate : 40 b/s
Count of elements : 851
Stream size : 25.7 KiB (0%)
Title : SDH
Language : English
Default : Yes
Forced : No

Menu
00:00:00.000 : en:00:00:00.000 / en:Глава 01
00:07:03.465 : en:00:07:03.465
00:12:50.937 : en:00:12:50.937
00:17:09.403 : en:00:17:09.403
00:22:30.140 : en:00:22:30.140
00:31:38.939 : en:00:31:38.939
00:36:59.968 : en:00:36:59.968
00:39:56.019 : en:00:39:56.019
00:48:35.538 : en:00:48:35.538
00:54:08.829 : en:00:54:08.829
01:03:33.393 : en:01:03:33.393
01:07:18.993 : en:01:07:18.993
01:12:54.954 : en:01:12:54.954
01:16:58.531 : en:01:16:58.531
01:19:37.022 : en:01:19:37.022
01:23:10.986 : en:01:23:10.986


Джерело: &
Особиста оцінка: 10 - без зайвих вагань рекомендую всім!

За запис з ТБ дякую п. xslim, (Новий канал),

За роботу зі звуком дякую панам slavik_v_z, Neytreenor, krigg070 та пану Arsenfpu.


Золотий реліз (завантажене не впливає на рейтинг)
 Трекер:    Зареєстрований   

Завантажити / скачати фільм українською



відео для новачків



 Зареєстрований:   2020-06-28 20:12
 Розмір:   20.9 GB 
 Оцінка фільму:   9.1/10 (Голосів: 13)
   
Інші релізи
   Механік / The Mechanic (2011) 2xUkr/Eng Arsenfpu  6 / 0   1.71 GB   2017-02-05 11:18 
   Механік / The Mechanic (2011) 720p Ukr/Eng | Sub Eng Zeus62  7 / 0   4.29 GB   2012-02-17 21:34 
   Механік / The Mechanic (2011) AVC Ukr/Eng AngryBirdsUA  7 / 0   2.13 GB   2011-10-16 19:53 
   Механік / The Mechanic (2011) ** Anonymous  0 / 0   1.46 GB   2011-10-11 23:07 
mutomba 
VIP


З нами з: 20.10.13
Востаннє: 23.09.20
Повідомлень: 361

2018-09-17 21:25  
Як на мене - тупувате кіно.
Ефект колібрі та паркер цікавіше дивитись...

Graviller123 
Свій


З нами з: 26.08.15
Востаннє: 10.09.20
Повідомлень: 86

2018-11-10 21:28  
хм, колись, а ....мабуть на початку літа десь качав відеоряд 16:9, та кидав туди звук наш, але там картинка така жовта була, дуже неякісний блюр був. Цікаво як тут.
kryk-v.ya. 
Попереджень: 1
Попереджень: 1 


З нами з: 14.02.14
Востаннє: 23.09.20
Повідомлень: 2242

2018-11-10 22:24  
Graviller123
так як на скріншотах.

Nahalist 
VIP


З нами з: 13.12.13
Востаннє: 23.09.20
Повідомлень: 295

2019-01-13 23:35  
Graviller123 написано:
хм, колись, а ....мабуть на початку літа десь качав відеоряд 16:9, та кидав туди звук наш, але там картинка така жовта була, дуже неякісний блюр був. Цікаво як тут.

Схоже те саме - не якісне, та вже що є.

kryk-v.ya. 
Попереджень: 1
Попереджень: 1 


З нами з: 14.02.14
Востаннє: 23.09.20
Повідомлень: 2242

2019-01-14 22:41  
Graviller123
Nahalist
це рашистське видання,тому і якість відповідна.

kryk-v.ya. 
Попереджень: 1
Попереджень: 1 


З нами з: 14.02.14
Востаннє: 23.09.20
Повідомлень: 2242

2020-06-28 20:15  
Реліз оновлено: замінив відео на інше з американського трансферу, замінив звук на якісніший з нового запису та замінено контейнер на мкв.
Ваш часовий пояс: GMT + 2 Години

Нова тема   Відповісти