Небезпечне завдання / Beast of Burden (2018) 1080p Ukr/Eng | Sub Eng

Нові коментарі

Нова тема   Відповісти
Автор Повідомлення
staf777 
Попереджень: 1
Попереджень: 1 


З нами з: 16.11.16
Востаннє: 19.10.18
Повідомлень: 1637

2018-09-13 17:37  
Небезпечне завдання / Beast of Burden (2018) 1080p Ukr/Eng | Sub Eng

Небезпечне завдання / Beast of Burden (2018) 1080p Ukr/Eng | Sub Eng


Жанр: бойовик, драма, кримінальний, трилер
Країна: США



Кінокомпанія: Aloe Entertainment, WYSJ Media, Coastal Film Studios
Режисер: Адам Гельцель / Jesper Ganslandt
Актори: Деніел Редкліф / Daniel Radcliffe, Грейс Гаммер / Grace Gummer , Пабло Шрайбер / Pablo Schreiber, Роберт Віздом / Robert Wisdom, Сезар Перес / Cesar Perez, Девід Мартінез / David Martinez, Ештон Татум / Ashton Tatum, Марк Сміт / Mark Smith, Рені Віллетт / Renée Willett, Шон Гловер / Sean Glover та інші

Сюжет:
У Шона Хаггерті є лише одна година, щоб доставити свій нелегальний вантаж. Одна година, щоб переконати картель, кілера і агента з Управління по боротьбі з наркотиками, що все йде за планом. Одна година, щоб врятувати свою дружину. І все це він повинен зробити з кабіни свого падаючого літака.
Офіційний трейлер:


Рейтинг MPAA: R - особам до 17 років обов'язкова присутність батьків або дорослого опікуна
Вікова категорія: 16+

Тривалість: 01:29:42
Якість: 1080p
Відео:
кодек:
розмір кадру: 1920x802
бітрейт: 13,8 Mб/с

Аудіо # 1:
мова: українська
переклад: професійний дубльований | студія ААА-sound
кодек: 2.0
бітрейт: 192 кб/с

Аудіо # 2:
мова: англійська
переклад: оригінал
кодек: 5.1
бітрейт: 1509 кб/с

Субтитри # 1-2:
мова: англійська
тип: програмні (м'які)
формат: *.srt
Info
General
Unique ID : 272812274608412602678315761934045000188 (0xCD3DBB9E72AB88F180971B6FCB6FB1FC)
Complete name : S:\Фільми в HD\Бойовик\Beast of Burden (2018) 1080p [UKR_ENG] [Hurtom].
Format :
Format version : Version 4 / Version 2
File size : 9.74 GiB
Duration : 1 h 29 min
Overall bit rate : 15.5 Mb/s
Movie name : Beast of Burden (2018) 1080p [UKR_ENG] [Hurtom]
Encoded date : UTC 2018-09-17 17:23:14
Writing application : v24.0.0 ('Beyond The Pale') 64-bit
Writing library : libebml v1.3.6 + v1.4.9
Cover : Yes
Attachments : cover.jpg

Video
ID : 1
Format : AVC
Format/Info : Advanced Video Codec
Format profile : [email protected]
Format settings : CABAC / 5 Ref Frames
Format settings, CABAC : Yes
Format settings, ReFrames : 5 frames
Codec ID : V_MPEG4/ISO/AVC
Duration : 1 h 29 min
Bit rate : 13.8 Mb/s
Width : 1 920 pixels
Height : 802 pixels
Display aspect ratio : 2.40:1
Frame rate mode : Constant
Frame rate : 23.976 (24000/1001) FPS
Color space : YUV
Chroma subsampling : 4:2:0
Bit depth : 8 bits
Scan type : Progressive
Bits/(Pixel*Frame) : 0.375
Stream size : 8.67 GiB (89%)
Title : Beast.of.Burden.2018.1080p.BluRay..-MT
Language : English
Default : Yes
Forced : No

Audio #1
ID : 2
Format : AC-3
Format/Info : Audio Coding 3
Codec ID : A_AC3
Duration : 1 h 29 min
Bit rate mode : Constant
Bit rate : 192 kb/s
Channel(s) : 2 channels
Channel positions : Front: L R
Sampling rate : 48.0 kHz
Frame rate : 31.250 FPS (1536 SPF)
Bit depth : 16 bits
Compression mode : Lossy
Stream size : 123 MiB (1%)
Title : студія ААА-sound
Language : Ukrainian
Service kind : Complete Main
Default : Yes
Forced : Yes

Audio #2
ID : 3
Format :
Format/Info : Digital Theater Systems
Codec ID : A_DTS
Duration : 1 h 29 min
Bit rate mode : Constant
Bit rate : 1 509 kb/s
Channel(s) : 6 channels
Channel positions : Front: L C R, Side: L R, LFE
Sampling rate : 48.0 kHz
Frame rate : 93.750 FPS (512 SPF)
Bit depth : 16 bits
Compression mode : Lossy
Stream size : 968 MiB (10%)
Title : Beast.of.Burden.2018.1080p.BluRay..-MT
Language : English
Default : No
Forced : No

Text #1
ID : 4
Format : UTF-8
Codec ID : S_TEXT/UTF8
Codec ID/Info : UTF-8 Plain Text
Duration : 1 h 22 min
Bit rate : 58 b/s
Count of elements : 1082
Stream size : 35.5 KiB (0%)
Language : English
Default : No
Forced : No

Text #2
ID : 5
Format : UTF-8
Codec ID : S_TEXT/UTF8
Codec ID/Info : UTF-8 Plain Text
Duration : 1 h 21 min
Bit rate : 55 b/s
Count of elements : 973
Stream size : 32.7 KiB (0%)
Language : English
Default : No
Forced : No
Скріншоти




Підтримати купівлю інших фільмів можна тут.

Подяка 11FrYkT за доріжку та igor911 за синхронізацію і допомогу.
Джерело: &
Особиста оцінка: 0 - не дивився
Небезпечне завдання / Beast of Burden (2018) 1080p Ukr/Eng | Sub Eng


Небезпечне завдання / Beast of Burden (2018) 1080p Ukr/Eng | Sub Eng


 Трекер:    Зареєстрований   

Завантажити / скачати фільм українською



відео для новачків



 Зареєстрований:   2018-09-17 21:00
 Розмір:   9.74 GB 
 Оцінка фільму:   7.4/10 (Голосів: 7)
   
Інші релізи
bot 
робот


З нами з: 30.09.07
Востаннє: 26.05.05
Повідомлень: 19962

2018-09-17 21:00  
Тему перенесено з Анонси релізів до форуму Фільми в HD


staf777

Alexander_S 
Свій


З нами з: 06.02.09
Востаннє: 19.10.18
Повідомлень: 129

2018-09-17 23:20  
Трейлер не сподобався, оцінка на IMDB критично низька, адаптація назви фільму для нашого прокату взагалі змора. Григорій Портвейн не в той фільм явно втрапив Confused
Wysnewetskyj 
Свій


З нами з: 30.05.16
Востаннє: 19.10.18
Повідомлень: 50

2018-09-18 11:55  
Фільм міг би бути не поганим. На жаль його вирішили зробити за логікою "Сюжет вже йде, передісторію дізнаєтесь з флешбеків". І можливо це теж би його не зіпсувала якби не відверто погано прописані сюжетні лінії, і періодичне враження, що персонаж Редкліфа під наркотою ловить флешбек на флешбек.
Тому фільм відверто слабкий, не тримає в напрузі рівно ні секунди і єдине бажання яке виникає під час перегляду - вимкнути його і не страждати.

ImfromUkraine 
VIP


З нами з: 18.02.12
Востаннє: 18.10.18
Повідомлень: 330

2018-09-18 22:31  
нудне та не цiкаве, розгорнутiше написали вище, погоджуюсь
Ваш часовий пояс: GMT + 2 Години

Нова тема   Відповісти