Небезпечне завдання / Beast of Burden (2018) 720p Ukr/Eng | Sub Eng

Нові коментарі

Нова тема   Відповісти
Автор Повідомлення
Anonymous 







2018-09-13 13:18  
Небезпечне завдання / Beast of Burden (2018) 720p Ukr/Eng | Sub Eng



Жанр: бойовик, драма, кримінальний, трилер
Країна: США



Кінокомпанія: Aloe Entertainment, WYSJ Media, Coastal Film Studios
Режисер: Адам Гельцель / Jesper Ganslandt
Актори: Деніел Редкліф / Daniel Radcliffe, Грейс Гаммер / Grace Gummer , Пабло Шрайбер / Pablo Schreiber, Роберт Віздом / Robert Wisdom, Сезар Перес / Cesar Perez, Девід Мартінез / David Martinez, Ештон Татум / Ashton Tatum, Марк Сміт / Mark Smith, Рені Віллетт / Renée Willett, Шон Гловер / Sean Glover та інші

Сюжет:
У Шона Хаггерті є лише одна година, щоб доставити свій нелегальний вантаж. Одна година, щоб переконати картель, кілера і агента з Управління по боротьбі з наркотиками, що все йде за планом. Одна година, щоб врятувати свою дружину. І все це він повинен зробити з кабіни свого падаючого літака.
Офіційний трейлер:


Рейтинг MPAA: R - особам до 17 років обов'язкова присутність батьків або дорослого опікуна
Вікова категорія: 16+

Тривалість: 01:29:42
Якість: 720p

Відео:
кодек:
розмір кадру: 1280х534
бітрейт: 7668 кб/с

Аудіо # 1:
мова: українська
переклад: професійний дубльований | студія ААА-sound
кодек: 2.0 [стерео]
бітрейт: 192 кб/с
Інформація про дубляж:
Режисер та звукорежисер перезапису: Олександр Єфімов
Ролі озвучили: Павло Скороходько, Юлія Перенчук, Дмитро Завадський, Катерина Буцька, Ярослав Чорненький.

Фільм озвучено студією ААА-sound у 2018 році на замовлення компанії Каскад Україна.
Аудіо # 2:
мова: англійська
переклад: оригінал
кодек: 5.1
бітрейт: 640 кб/с

Субтитри # 1-2:
мова: англійська (повні, SDH)
тип: програмні (м'які)
формат: *.srt
Info
Код:
Complete name               : Beast of Burden (2018) [Ukr,Eng sub.Eng] 720p [Hurtom].
Format                      :
Format version              : Version 4
File size                   : 5.33 GiB
Duration                    : 1 h 29 min
Overall bit rate            : 8 503 kb/s
Movie name                  : Небезпечне завдання / Beast of Burden (2018) [Ukr,Eng sub.Eng] 720p [Hurtom]
Released date               : 2018
Encoded date                : UTC 2018-09-13 11:55:07
Writing application         : v25.0.0 ('Prog Noir') 64-bit
Writing library             : libebml v1.3.6 + v1.4.9
Cover                       : Yes
Comment                     : https://www.imdb.com/title/tt6170506/
Attachments                 : cover.jpg
DIRECTOR                    : Адам Гельцель / Jesper Ganslandt
GENRE                       : бойовик, драма, кримінальний, трилер
SYNOPSIS                    : У Шона Хаггерті є лише одна година, щоб доставити свій нелегальний вантаж. Одна година, щоб переконати картель, кілера і агента з Управління по боротьбі з наркотиками, що все йде за планом. Одна година, щоб врятувати свою дружину. І все це він повинен зробити з кабіни свого падаючого літака...
Url                         : https://toloka.to/t95043

Video
ID                          : 1
Format                      : AVC
Format/Info                 : Advanced Video Codec
Format profile              : [email protected]
Format settings             : CABAC / 12 Ref Frames
Format settings, CABAC      : Yes
Format settings, ReFrames   : 12 frames
Codec ID                    : V_MPEG4/ISO/AVC
Duration                    : 1 h 29 min
Bit rate                    : 7 668 kb/s
Width                       : 1 280 pixels
Height                      : 534 pixels
Display aspect ratio        : 2.40:1
Frame rate mode             : Constant
Frame rate                  : 23.976 (24000/1001) FPS
Color space                 : YUV
Chroma subsampling          : 4:2:0
Bit depth                   : 8 bits
Scan type                   : Progressive
Bits/(Pixel*Frame)          : 0.468
Stream size                 : 4.80 GiB (90%)
Title                       : Небезпечне завдання / Beast of Burden (2018) 720p [MTeam]
Language                    : English
Default                     : Yes
Forced                      : No

Audio #1
ID                          : 2
Format                      : AC-3
Format/Info                 : Audio Coding 3
Commercial name             : Dolby Digital
Codec ID                    : A_AC3
Duration                    : 1 h 29 min
Bit rate mode               : Constant
Bit rate                    : 192 kb/s
Channel(s)                  : 2 channels
Channel layout              : L R
Sampling rate               : 48.0 kHz
Frame rate                  : 31.250 FPS (1536 SPF)
Bit depth                   : 16 bits
Compression mode            : Lossy
Stream size                 : 123 MiB (2%)
Title                       : Dub [AAA-sound], 2.0 [stereo] 192 Kbps
Language                    : Ukrainian
Service kind                : Complete Main
Default                     : Yes
Forced                      : Yes

Audio #2
ID                          : 3
Format                      : AC-3
Format/Info                 : Audio Coding 3
Commercial name             : Dolby Digital
Codec ID                    : A_AC3
Duration                    : 1 h 29 min
Bit rate mode               : Constant
Bit rate                    : 640 kb/s
Channel(s)                  : 6 channels
Channel layout              : L R C LFE Ls Rs
Sampling rate               : 48.0 kHz
Frame rate                  : 31.250 FPS (1536 SPF)
Bit depth                   : 16 bits
Compression mode            : Lossy
Stream size                 : 411 MiB (8%)
Title                       : Original, 5.1 640 Kbps
Language                    : English
Service kind                : Complete Main
Default                     : No
Forced                      : No

Text #1
ID                          : 4
Format                      : UTF-8
Codec ID                    : S_TEXT/UTF8
Codec ID/Info               : UTF-8 Plain Text
Duration                    : 1 h 21 min
Bit rate                    : 55 b/s
Count of elements           : 973
Stream size                 : 32.7 KiB (0%)
Title                       : Eng full
Language                    : English
Default                     : No
Forced                      : No

Text #2
ID                          : 5
Format                      : UTF-8
Codec ID                    : S_TEXT/UTF8
Codec ID/Info               : UTF-8 Plain Text
Duration                    : 1 h 22 min
Bit rate                    : 58 b/s
Count of elements           : 1082
Stream size                 : 35.5 KiB (0%)
Title                       : Eng SDH
Language                    : English
Default                     : No
Forced                      : No




Підтримати купівлю інших фільмів можна тут.


Джерело: &
Подяка AngryBirdsUA за придбаний звук.


 Трекер:    Зареєстрований   

Завантажити / скачати фільм українською



відео для новачків



 Зареєстрований:   2018-09-13 14:25
 Розмір:   5.33 GB 
 Оцінка фільму:   6.7/10 (Голосів: 17)
 ЗАЛИШАЙТЕСЬ ЯКОМОГА ДОВШЕ НА РОЗДАЧІ! ЗАВАНТАЖИВ САМ - ДАЙ ЗАВАНТАЖИТИ ІНШИМ.
   
Інші релізи
DuB.Bog 
Свій


З нами з: 14.04.13
Востаннє: 20.11.18
Повідомлень: 79

2018-09-14 03:19  
нудно.
гобой 
Частий відвідувач


З нами з: 08.01.12
Востаннє: 12.12.18
Повідомлень: 29

2018-09-14 12:34  
DuB.Bog
100% підтримую. заснув вчора під нього. і навіть не цікаво що буде далі

powerball 
Новенький


З нами з: 23.02.17
Востаннє: 12.12.18
Повідомлень: 11

2018-09-15 19:30  
півтори години сидить в кабіні)
гадаю що проїхавши в маршрутці по місту за такий час, та знімаючи водія на камеру телефону, історію водія маршрутки - можна зняти шедевр)))

Victor_Scythian 
Поважний учасник


З нами з: 06.01.17
Востаннє: 10.12.18
Повідомлень: 225

2018-09-15 19:45  
DuB.Bog
3,6 рейтинг.... реально не розумію навіщо взагалі ТАКЕ викладати

olegggphr 
Новенький


З нами з: 01.02.13
Востаннє: 10.12.18
Повідомлень: 17

2018-09-18 18:47  
Фільм майже весь в темряві. Це напружує. Та і головний герой якийсь плаксивий. Враження не дуже
waldi-hurtom 
VIP


З нами з: 07.10.12
Востаннє: 12.12.18
Повідомлень: 842

2018-09-19 18:10  
Лайно, зняте дебілами для нещасних з повністю видаленим мозком. 1 з 10. Гірше не буває. НАВІЩО ТАКЕ ЛАЙНО ПЕРЕКЛАДАТИ????????
Ваш часовий пояс: GMT + 2 Години

Нова тема   Відповісти