Світ Юрського періоду 2 / Jurassic World: Fallen Kingdom (2018) 1080p H.265 Ukr/Eng | Sub Eng

Нові коментарі

Нова тема   Відповісти
Автор Повідомлення
-Star-Lord- 
VIP


З нами з: 09.08.18
Востаннє: 15.12.18
Повідомлень: 343

2018-09-13 10:28  
Світ Юрського періоду 2 / Jurassic World: Fallen Kingdom (2018) 1080p H.265 Ukr/Eng | Sub Eng

Світ Юрського періоду 2 / Jurassic World: Fallen Kingdom (2018) 1080p H.265 Ukr/Eng | Sub Eng


Жанр: бойовик, фантастика, пригодницький
Країна: США, Іспанія



Кінокомпанія: Universal Pictures, Apaches Entertainment, Amblin Entertainment, Legendary Picture
Режисер: Хуан Антоніо Байона
Актори: Кріс Претт, Брайс Даллас Говард, Тед Левайн, Джефф Голдблюм, Тобі Джонс, Джеймс Кромвелл, Б.Д. Вонг, Рейф Сполл, Даніелла Пінеда, Джастіс Сміт

Сюжет:
Культова сага продовжується! Залишившись на уламках унікального парку розваг, динозаври відчули себе господарями, немов у доісторичні часи. Але раптове виверження древнього вулкана на зловісному острові Нублар ставить під загрозу існування не лише ящерів, а й усієї планети. Люди, які прибувають на острів, щоб взяти ситуацію під контроль, опиняються у смертельній пастці між потоками розжареної лави та розлюченими гігантськими динозаврами.


Тривалість: 02:08:25
Якість:
Відео:
кодек: H.265 (HEVC)
розмір кадру: 1920 х 804
бітрейт: 5 130 кб/с
бітова глибина: 10 біт
Увага! Перед завантаженням переконайтесь, що ваш пристрій відтворення (та/або ПЗ) підтримує H.265 (HEVC)

Аудіо # 1:
мова: українська
переклад: професійний дубльований | студія LeDoyen
кодек: 2.0
бітрейт: 192 кб/с

Аудіо # 2:
мова: англійська
переклад: оригінал
кодек: 5.1
бітрейт: 448 кб/с

Субтитри # 1-2:
мова: англійська (Full, SDH)
тип: програмні (м'які)
формат: *.srt


Info
Код:
General
Unique ID                                : 281502119108586790937595205813646130478 (0xD3C7560806B02DB7BCF978698B63FD2E)
Complete name                            : F:\Video\Jurassic World Fallen Kingdom (2018) 1080p H.265 [UKR_ENG].
Format                                   :
Format version                           : Version 4 / Version 2
File size                                : 5.17 GiB
Duration                                 : 2 h 8 min
Overall bit rate                         : 5 773 kb/s
Movie name                               : Jurassic World: Fallen Kingdom (2018)
Encoded date                             : UTC 2018-09-13 07:46:35
Writing application                      : v20.0.0 ('I Am The Sun') 32-bit
Writing library                          : libebml v1.3.5 + v1.4.8
Cover                                    : Yes
Attachments                              : cover

Video
ID                                       : 1
Format                                   : HEVC
Format/Info                              : High Efficiency Video Coding
Format profile                           : Main [email protected]@High
Codec ID                                 : V_MPEGH/ISO/HEVC
Duration                                 : 2 h 8 min
Bit rate                                 : 5 130 kb/s
Width                                    : 1 920 pixels
Height                                   : 804 pixels
Display aspect ratio                     : 2.40:1
Frame rate mode                          : Constant
Frame rate                               : 23.976 (24000/1001) FPS
Color space                              : YUV
Chroma subsampling                       : 4:2:0
Bit depth                                : 10 bits
Bits/(Pixel*Frame)                       : 0.139
Stream size                              : 4.60 GiB (89%)
Writing library                          : x265 2.8+19-bcdc610cf5f0:[Windows][GCC 7.3.0][64 bit] 10bit
Encoding settings                        : cpuid=1049583 / frame-threads=5 / numa-pools=4 / wpp / no-pmode / no-pme / no-psnr / no-ssim / log-level=3 / input-csp=1 / input-res=1920x804 / interlace=0 / total-frames=0 / level-idc=51 / high-tier=1 / uhd-bd=0 / ref=5 / allow-non-conformance / no-repeat-headers / annexb / no-aud / no-hrd / info / hash=0 / no-temporal-layers / open-gop / min-keyint=24 / keyint=240 / gop-lookahead=0 / bframes=8 / b-adapt=2 / b-pyramid / bframe-bias=0 / rc-lookahead=40 / lookahead-slices=5 / scenecut=40 / radl=0 / no-intra-refresh / ctu=64 / min-cu-size=8 / no-rect / no-amp / max-tu-size=32 / tu-inter-depth=1 / tu-intra-depth=1 / limit-tu=0 / rdoq-level=0 / dynamic-rd=0.00 / no-ssim-rd / signhide / no-tskip / nr-intra=0 / nr-inter=0 / no-constrained-intra / strong-intra-smoothing / max-merge=2 / limit-refs=3 / no-limit-modes / me=3 / subme=7 / merange=57 / temporal-mvp / weightp / no-weightb / no-analyze-src-pics / deblock=-3:-3 / no-sao / no-sao-non-deblock / rd=3 / no-early-skip / rskip / no-fast-intra / no-tskip-fast / no-cu-lossless / no-b-intra / no-splitrd-skip / rdpenalty=0 / psy-rd=2.00 / psy-rdoq=0.00 / no-rd-refine / no-lossless / cbqpoffs=0 / crqpoffs=0 / rc=crf / crf=17.0 / qcomp=0.75 / qpstep=4 / stats-write=0 / stats-read=0 / vbv-maxrate=160000 / vbv-bufsize=160000 / vbv-init=0.9 / crf-max=0.0 / crf-min=0.0 / ipratio=1.40 / pbratio=1.30 / aq-mode=1 / aq-strength=1.00 / cutree / zone-count=0 / no-strict-cbr / qg-size=32 / no-rc-grain / qpmax=69 / qpmin=0 / no-const-vbv / sar=1 / overscan=0 / videoformat=5 / range=0 / colorprim=1 / transfer=1 / colormatrix=1 / chromaloc=0 / display-window=0 / max-cll=0,0 / min-luma=0 / max-luma=1023 / log2-max-poc-lsb=8 / vui-timing-info / vui-hrd-info / slices=1 / no-opt-qp-pps / no-opt-ref-list-length-pps / no-multi-pass-opt-rps / scenecut-bias=0.05 / no-opt-cu-delta-qp / no-aq-motion / no-hdr / no-hdr-opt / no-dhdr10-opt / no-idr-recovery-sei / analysis-reuse-level=5 / scale-factor=0 / refine-intra=0 / refine-inter=0 / refine-mv=0 / no-limit-sao / ctu-info=0 / no-lowpass-dct / refine-mv-type=0 / copy-pic=1 / max-ausize-factor=1.0 / no-dynamic-refine / no-single-sei
Language                                 : English
Default                                  : Yes
Forced                                   : No
Color range                              : Limited
Color primaries                          : BT.709
Transfer characteristics                 : BT.709
Matrix coefficients                      : BT.709

Audio #1
ID                                       : 2
Format                                   : AC-3
Format/Info                              : Audio Coding 3
Codec ID                                 : A_AC3
Duration                                 : 2 h 8 min
Bit rate mode                            : Constant
Bit rate                                 : 192 kb/s
Channel(s)                               : 2 channels
Channel positions                        : Front: L R
Sampling rate                            : 48.0 kHz
Frame rate                               : 31.250 FPS (1536 SPF)
Bit depth                                : 16 bits
Compression mode                         : Lossy
Stream size                              : 176 MiB (3%)
Title                                    : 2.0 @ 192 kbps
Language                                 : Ukrainian
Service kind                             : Complete Main
Default                                  : Yes
Forced                                   : Yes

Audio #2
ID                                       : 3
Format                                   : AC-3
Format/Info                              : Audio Coding 3
Codec ID                                 : A_AC3
Duration                                 : 2 h 8 min
Bit rate mode                            : Constant
Bit rate                                 : 448 kb/s
Channel(s)                               : 6 channels
Channel positions                        : Front: L C R, Side: L R, LFE
Sampling rate                            : 48.0 kHz
Frame rate                               : 31.250 FPS (1536 SPF)
Bit depth                                : 16 bits
Compression mode                         : Lossy
Stream size                              : 411 MiB (8%)
Title                                    : 5.1 @ 448 kbps
Language                                 : English
Service kind                             : Complete Main
Default                                  : No
Forced                                   : No

Text #1
ID                                       : 4
Format                                   : UTF-8
Codec ID                                 : S_TEXT/UTF8
Codec ID/Info                            : UTF-8 Plain Text
Duration                                 : 1 h 55 min
Bit rate                                 : 42 b/s
Count of elements                        : 1198
Stream size                              : 36.2 KiB (0%)
Title                                    : Full
Language                                 : English
Default                                  : No
Forced                                   : No

Text #2
ID                                       : 5
Format                                   : UTF-8
Codec ID                                 : S_TEXT/UTF8
Codec ID/Info                            : UTF-8 Plain Text
Duration                                 : 2 h 7 min
Bit rate                                 : 48 b/s
Count of elements                        : 1771
Stream size                              : 45.4 KiB (0%)
Title                                    : SDH
Language                                 : English
Default                                  : No
Forced                                   : No

Menu
00:00:00.000                             : en:00:00:00.000
00:07:13.224                             : en:00:07:13.224
00:12:01.554                             : en:00:12:01.554
00:17:17.745                             : en:00:17:17.745
00:21:17.193                             : en:00:21:17.193
00:28:49.811                             : en:00:28:49.811
00:35:04.686                             : en:00:35:04.686
00:40:51.574                             : en:00:40:51.574
00:46:32.498                             : en:00:46:32.498
00:52:04.997                             : en:00:52:04.997
01:00:59.197                             : en:01:00:59.197
01:06:50.256                             : en:01:06:50.256
01:11:07.638                             : en:01:11:07.638
01:17:21.095                             : en:01:17:21.095
01:26:55.210                             : en:01:26:55.210
01:33:01.493                             : en:01:33:01.493
01:42:55.878                             : en:01:42:55.878
01:50:01.553                             : en:01:50:01.553
01:54:56.223                             : en:01:54:56.223
01:58:37.986                             : en:01:58:37.986
Скріншоти




Підтримати купівлю інших фільмів можна тут.
Подяка пану Sando7 за синхронізацію.

Джерело:
Особиста оцінка: 0 - не дивився


 Трекер:    Зареєстрований   

Завантажити / скачати фільм українською



відео для новачків



 Зареєстрований:   2018-09-13 10:28
 Розмір:   5.17 GB 
 Оцінка фільму:   8.4/10 (Голосів: 22)
   
omm 
Відео Гуртом - фільмокрай
Відео Гуртом - фільмокрай


З нами з: 12.06.12
Востаннє: 14.12.18
Повідомлень: 2266

2018-09-17 22:51  
Цілком нормальний фільм. Так, десь поступається першій частині - в масштабності, можливо трохи в видовищності.. Але загалом розважальну функцію виконує на ура.
7,5 з 10.
Дякую релізеру за формат

0mage0 
VIP


З нами з: 06.10.15
Востаннє: 15.12.18
Повідомлень: 407

2018-10-08 15:31  
Дивитися можна.
Хоча те, що старий не помічав у себе в будинку велетенської лабораторії та зоопарку динозаврів разом з військовою базою і сотнями вояків, трошки дивно Happy І бій двох динозаврів у дитячій кімнаті... Вони б там в стелю хребтом вперлися і не було б місця розвернутися.

Ваш часовий пояс: GMT + 2 Години

Нова тема   Відповісти