Вбивця ворон / A Murder of Crows (1998) 720p Ukr/Eng | Sub Eng

Нові коментарі

Нова тема   Відповісти
Автор Повідомлення
Anonymous 







2018-09-12 18:39  
Вбивця ворон / A Murder of Crows (1998) 720p Ukr/Eng | Sub Eng

Вбивця ворон / A Murder of Crows (1998) 720p Ukr/Eng | Sub Eng


Жанр: детектив, трилер, кримінальний
Країна: США



Кінокомпанія: Crows Nest Films Inc
Режисер: Руді Герінгтон
Актори: К'юба Гудінг мол., Том Берінджер, Ерік Штольц, Маріан Жан-Баптіст

Сюжет:
Колишній адвокат Лоусон Расел який вірішив стати письменником знайомиться з рукописом свого сусіда, в якому розповідається про 5 різних вбивств. Згодом сусід раптово помирає і Лоусон вирішує чужий твір надрукувати під своїм ім'ям...


Тривалість: 01:41:19
Якість: 720p
Відео:
кодек:
розмір кадру: 1280х720
бітрейт: 4866 кб/с

Аудіо # 1:
мова: українська
переклад: багатоголосий закадровий , (ТакТребаПродакшн)
кодек: 2.0
бітрейт: 192 кб/с
примітка: доріжка з нового запису TV5 (11.09.2018)

Аудіо # 2:
мова: англійська
переклад: оригінал
кодек: 2.0
бітрейт: 192 кб/с

Субтитри:
мова: англійська
тип: програмні (м'які)
формат: *.srt
Info
General
Unique ID : 234712444748391785321293812049594379885 (0xB093F8FA17F9616DB809B322F2D16E6D)
Format :
Format version : Version 4 / Version 2
File size : 3.71 GiB
Duration : 1 h 41 min
Overall bit rate : 5 250 kb/s
Encoded date : UTC 2018-09-12 16:37:06
Writing application : v6.1.0 ('Old Devil') built on Mar 4 2013 09:10:42
Writing library : libebml v1.3.0 + v1.4.0

Video
ID : 1
Format : AVC
Format/Info : Advanced Video Codec
Format profile : [email protected]
Format settings : CABAC / 9 Ref Frames
Format settings, CABAC : Yes
Format settings, ReFrames : 9 frames
Codec ID : V_MPEG4/ISO/AVC
Duration : 1 h 41 min
Bit rate : 4 866 kb/s
Width : 1 280 pixels
Height : 720 pixels
Display aspect ratio : 16:9
Frame rate mode : Constant
Frame rate : 23.976 (24000/1001) FPS
Color space : YUV
Chroma subsampling : 4:2:0
Bit depth : 8 bits
Scan type : Progressive
Bits/(Pixel*Frame) : 0.220
Stream size : 3.37 GiB (91%)
Writing library : core 148 r2744 b97ae06
Encoding settings : cabac=1 / ref=9 / deblock=1:-3:-3 / analyse=0x3:0x133 / me=umh / subme=11 / psy=1 / psy_rd=1.00:0.00 / mixed_ref=1 / me_range=32 / chroma_me=1 / trellis=2 / 8x8dct=1 / cqm=0 / deadzone=21,11 / fast_pskip=1 / chroma_qp_offset=-2 / threads=6 / lookahead_threads=1 / sliced_threads=0 / nr=0 / decimate=1 / interlaced=0 / bluray_compat=0 / constrained_intra=0 / bframes=5 / b_pyramid=2 / b_adapt=2 / b_bias=0 / direct=3 / weightb=1 / open_gop=0 / weightp=2 / keyint=240 / keyint_min=23 / scenecut=40 / intra_refresh=0 / rc_lookahead=60 / rc=2pass / mbtree=1 / bitrate=4866 / ratetol=1.0 / qcomp=0.60 / qpmin=0 / qpmax=69 / qpstep=4 / cplxblur=20.0 / qblur=0.5 / vbv_maxrate=50000 / vbv_bufsize=62500 / nal_hrd=none / filler=0 / ip_ratio=1.40 / aq=1:1.00
Language : English
Default : Yes
Forced : No

Audio #1
ID : 2
Format : AC-3
Format/Info : Audio Coding 3
Codec ID : A_AC3
Duration : 1 h 41 min
Bit rate mode : Constant
Bit rate : 192 kb/s
Channel(s) : 2 channels
Channel positions : Front: L R
Sampling rate : 48.0 kHz
Frame rate : 31.250 FPS (1536 SPF)
Bit depth : 16 bits
Compression mode : Lossy
Stream size : 139 MiB (4%)
Title : UKR (TV5, ТВі) - ТакТребаПродакшн
Language : Ukrainian
Service kind : Complete Main
Default : Yes
Forced : Yes

Audio #2
ID : 3
Format : AC-3
Format/Info : Audio Coding 3
Codec ID : A_AC3
Duration : 1 h 41 min
Bit rate mode : Constant
Bit rate : 192 kb/s
Channel(s) : 2 channels
Channel positions : Front: L R
Sampling rate : 48.0 kHz
Frame rate : 31.250 FPS (1536 SPF)
Bit depth : 16 bits
Compression mode : Lossy
Stream size : 139 MiB (4%)
Title : Original
Language : English
Service kind : Complete Main
Default : No
Forced : No

Text
ID : 4
Format : UTF-8
Codec ID : S_TEXT/UTF8
Codec ID/Info : UTF-8 Plain Text
Title : ENG
Language : English
Default : No
Forced : No
Скріншоти









За запис звуку з ТБ дякуємо пану Krigg070 і bodia87
Особиста подяка пану denixx за надану матеріальну допомогу на підтримку цього і майбутніх релізів.
Джерело:


Срібний реліз (на рейтинг впливає 50% завантаженого)
 Трекер:    Зареєстрований   

Завантажити / скачати фільм українською



відео для новачків



 Зареєстрований:   2018-09-12 18:39
 Розмір:   3.71 GB 
 Оцінка фільму:   10/10 (Голосів: 2)
   
Інші релізи
   Вбивця ворон / A Murder of Crows (1998) Ukr/Eng bodia87  2 / 0   1.09 GB   2010-07-04 21:31 
Anonymous 







2018-09-12 18:41  
Українська доріжка виконана з нового запису.
Ваш часовий пояс: GMT + 2 Години

Нова тема   Відповісти