Підчеплений по-крупному / 52 Pick-Up (1986) 1080p Ukr/Eng | Sub Eng

Нові коментарі

Нова тема   Відповісти
Автор Повідомлення
Anonymous 







2018-09-12 16:27  
Підчеплений по-крупному / 52 Pick-Up (1986) 1080p Ukr/Eng | Sub Eng

Підчеплений по-крупному / 52 Pick-Up (1986) 1080p Ukr/Eng | Sub Eng


Жанр: кримінальний, трилер
Країна: США



Кінокомпанія: Cannon Group, Golan-Globus Productions
Режисер: Джон Франкенхаймер
Актори: Рой Шайдер, Енн-Маргрет, Веніті, Джон Гловер, Роберт Требор, Лонні Чепмен, Келлі Престон, Даг МакКлёр, Кларенс Вільямс III, Алекс Хентелоф та інші

Сюжет:
Гаррі Мітчелл після 23 років шлюбу зраджує своїй дружині Барбарі, яка балотується до міської ради. Коли троє озброєних людей в масках шантажують його, показуючи компрометуючу відеокасету, на якій він знятий зі своєю пасією, і вимагають кругленьку суму, він не може звернутися в поліцію - боїться зіпсувати дружині кар'єру. Далі гірше: за невиконання своїх вимог шантажисти вбивають нещасну дівчину і, знявши це на відео, показують Мітчеллу. Тут вже колишній майор починає власну гру ...


Тривалість: 01:50:18
Якість: 1080p
Відео:
кодек:
розмір кадру: 1920х1040
бітрейт: 9 844 кб/с

Аудіо # 1:
мова: українська
переклад: багатоголосий закадровий
кодек: 2.0
бітрейт: 192 кб/с

Аудіо # 2:
мова: англійська
переклад: оригінал
кодек: 5.1
бітрейт: 1509 кб/с

Субтитри:
мова: англійська
тип: програмні (м'які)
формат: *.srt
Info
General
Unique ID : 209338809855872783419654005238433198136 (0x9D7D3030A716A2D4B50A43EB021A3038)
Format :
Format version : Version 4 / Version 2
File size : 8.90 GiB
Duration : 1 h 50 min
Overall bit rate : 11.5 Mb/s
Encoded date : UTC 2018-09-12 14:17:45
Writing application : v6.1.0 ('Old Devil') built on Mar 4 2013 09:10:42
Writing library : libebml v1.3.0 + v1.4.0

Video
ID : 1
Format : AVC
Format/Info : Advanced Video Codec
Format profile : [email protected]
Format settings : CABAC / 4 Ref Frames
Format settings, CABAC : Yes
Format settings, ReFrames : 4 frames
Codec ID : V_MPEG4/ISO/AVC
Duration : 1 h 50 min
Bit rate : 9 844 kb/s
Width : 1 920 pixels
Height : 1 040 pixels
Display aspect ratio : 1.85:1
Frame rate mode : Constant
Frame rate : 23.976 (24000/1001) FPS
Color space : YUV
Chroma subsampling : 4:2:0
Bit depth : 8 bits
Scan type : Progressive
Bits/(Pixel*Frame) : 0.206
Stream size : 7.41 GiB (83%)
Writing library : core 144 r2525 40bb568
Encoding settings : cabac=1 / ref=4 / deblock=1:0:0 / analyse=0x3:0x133 / me=umh / subme=7 / psy=1 / psy_rd=1.00:0.00 / mixed_ref=1 / me_range=16 / chroma_me=1 / trellis=1 / 8x8dct=1 / cqm=0 / deadzone=21,11 / fast_pskip=0 / chroma_qp_offset=-2 / threads=18 / lookahead_threads=3 / sliced_threads=0 / nr=0 / decimate=1 / interlaced=0 / bluray_compat=0 / constrained_intra=0 / bframes=3 / b_pyramid=2 / b_adapt=1 / b_bias=0 / direct=1 / weightb=1 / open_gop=0 / weightp=2 / keyint=240 / keyint_min=23 / scenecut=40 / intra_refresh=0 / rc_lookahead=40 / rc=2pass / mbtree=1 / bitrate=9844 / ratetol=1.0 / qcomp=0.60 / qpmin=10 / qpmax=51 / qpstep=4 / cplxblur=20.0 / qblur=0.5 / ip_ratio=1.40 / aq=1:1.00
Default : Yes
Forced : No
Statistics Tags Issue : v7.6.0 ('Garden of Dreams') 32bit built on Feb 8 2015 12:51:39 2015-02-25 02:47:38 / v6.1.0 ('Old Devil') built on Mar 4 2013 09:10:42 2018-09-12 14:17:45
FromStats_BitRate : 9842852
FromStats_Duration : 01:50:18.571000000
FromStats_FrameCount : 158687
FromStats_StreamSize : 8143202631

Audio #1
ID : 2
Format : AC-3
Format/Info : Audio Coding 3
Codec ID : A_AC3
Duration : 1 h 50 min
Bit rate mode : Constant
Bit rate : 192 kb/s
Channel(s) : 2 channels
Channel positions : Front: L R
Sampling rate : 48.0 kHz
Frame rate : 31.250 FPS (1536 SPF)
Bit depth : 16 bits
Compression mode : Lossy
Stream size : 151 MiB (2%)
Title : UKR (AMC)
Language : Ukrainian
Service kind : Complete Main
Default : Yes
Forced : Yes

Audio #2
ID : 3
Format :
Format/Info : Digital Theater Systems
Codec ID : A_DTS
Duration : 1 h 50 min
Bit rate mode : Constant
Bit rate : 1 509 kb/s
Channel(s) : 2 channels
Channel positions : Front: L R
Sampling rate : 48.0 kHz
Frame rate : 93.750 FPS (512 SPF)
Bit depth : 24 bits
Compression mode : Lossy
Stream size : 1.16 GiB (13%)
Language : English
Default : No
Forced : No
Statistics Tags Issue : v7.6.0 ('Garden of Dreams') 32bit built on Feb 8 2015 12:51:39 2015-02-25 02:47:38 / v6.1.0 ('Old Devil') built on Mar 4 2013 09:10:42 2018-09-12 14:17:45
FromStats_BitRate : 1509000
FromStats_Duration : 01:50:19.008000000
FromStats_FrameCount : 620532
FromStats_StreamSize : 1248510384

Text
ID : 4
Format : UTF-8
Codec ID : S_TEXT/UTF8
Codec ID/Info : UTF-8 Plain Text
Title : ENG
Language : English
Default : Yes
Forced : No
Скріншоти










За українську доріжку подяка п.: Sando7, Arsenfpu
Особиста подяка пану denixx за надану матеріальну допомогу на підтримку цього і майбутніх релізів.
Джерело:


Срібний реліз (на рейтинг впливає 50% завантаженого)
 Трекер:    Зареєстрований   

Завантажити / скачати фільм українською



відео для новачків



 Зареєстрований:   2018-09-12 16:27
 Розмір:   8.9 GB 
 Оцінка фільму:   10/10 (Голосів: 1)
   
Інші релізи
Ваш часовий пояс: GMT + 2 Години

Нова тема   Відповісти