Маленький зоомагазин: Наш власний світ / Littlest Pet Shop. A World of Our Own (Сезон 1) (2018) 1080p

Нові коментарі

Нова тема   Відповісти
Автор Повідомлення
sergiyko.5 
Забанено
Забанено


З нами з: 25.02.16
Востаннє: 29.10.20
Повідомлень: 3648

2018-09-12 14:25  
Маленький зоомагазин: Наш власний світ / Littlest Pet Shop. A World of Our Own (Сезон 1) (2018) 1080p


Маленький зоомагазин: Наш власний світ / Littlest Pet Shop. A World of Our Own (Сезон 1) (2018) 1080p

Жанр: комедія, сімейний
Країна: США, Канада
Кінокомпанія: Hasbro Studios, DHX Media
Режисер: Джоель Дікі, Даллас Паркер
Актори: Ешлі Болл, Ніколь Олівер, Сем Вінсент, Кайл Райдаут, Пітер Нью, Табіта Сен Жермен, Кіра Тозер, Джосілайн Льювен, Майкл Копса, Кетлін Барр, Шенон Чан-Кент, інші

Сюжет:
У основу сюжету покладено історію маленької дівчинки, які переїжджає разом з батьком у нову квартиру, яка знаходиться над зоомагазином.

З подивом, головна героїня мультсеріалу на телеканалі Плюс Плюс виявляє, що може спілкуватись з тваринками – і саме тоді починаються їхні пригоди. Вона зі своїми новими друзями постійно робить якісь цікаві відкриття, знаходить цікаві заняття та просто весело проводить час. Цей мультфільм – чудовий приклад для малечі, адже він вчить справжній дружбі та доброзичливості до усіх живих істот.




Тривалість: 1 серія: 10:35 (цілком серій: 52 з 52)
Якість:

Відео: кодек: розмір кадру: 1920 х 1080 бітрейт: 1600 кб/с
Аудіо: мова: українська переклад: професійний дубльований кодек: 2.0 бітрейт: 256 кб/с
Озвучення:
Перелік серій

01 Найкращі друзі
02 Подарунок для кішки
03 Оглядове колесо
04 Крадіжки серед ночі
05 Поганий співак
06 Вечірка з ночівлею
07 Відпусти, не хітова пісня
08 Швидкісний пухнастик
09 Притримай Бо в собі
10 Сміливець Квінсі
11 Причепурення
12 Бев на межі
13 Розніжені тваринки
14 Чотири ліві лапки
15 Повторюхи-мухи собака та ігуана
16 Пародист
17 Муркотний збіг обставин
18 Полохливі хвостики
19 Кристальна лихоманка
20 Чи вміє Тріп танцювати?
21 Прекрасна пір'яста ворожка
22 Няньки для непосид
23 З Бев до перемоги
24 Ген-директор Тріп
25 Надзвичайні Роман і Рей
26 Подай лапу іншому
27 Забудь про страхи
28 Джейд, принеси удачу
29 Щільний графік Бев
30
31
32
33
34
35
36
37
38
39
40
41 Зустріч двох стихій
42 Остін ла віста
43 Старша сестра і миле цуценя
44 Тріп і його рекорд
45 Диван завжди зеленіший
46 Модель поведінки
47 Сюрприз! Лапко-зомбі!
48 Важливий лаподкаст
49 Допитливість і кішка
50 Палиця історій
51 Очі і вуха Лапкотакіта
52 Встигнути на концерт
Про файл:
General
Unique ID : 37446230142657184063233704185912926437 (0x1C2BE1B01E84D18331BB8DFA9D78A0E5)
Complete name : E:\MULTFILMS\Littlest Pet Shop. A World of Our Own S01 1080p \S01E09.Slow Your Beau.1080p..
Format :
Format version : Version 4 / Version 2
File size : 139 MiB
Duration : 10 min 35 s
Overall bit rate : 1 831 kb/s
Movie name : Littlest Pet Shop. A World of Our Own S01 1080p by sergiyko
Encoded date : UTC 2018-09-12 13:27:59
Writing application : v26.0.0 ('In The Game') 64-bit
Writing library : libebml v1.3.6 + v1.4.9

Video
ID : 1
Format : AVC
Format/Info : Advanced Video Codec
Format profile : [email protected]
Format settings : CABAC / 6 Ref Frames
Format settings, CABAC : Yes
Format settings, ReFrames : 6 frames
Format settings, GOP : M=2, N=15
Codec ID : V_MPEG4/ISO/AVC
Duration : 10 min 35 s
Bit rate : 1 572 kb/s
Width : 1 920 pixels
Height : 1 080 pixels
Display aspect ratio : 16:9
Frame rate mode : Constant
Frame rate : 25.000 FPS
Color space : YUV
Chroma subsampling : 4:2:0
Bit depth : 8 bits
Scan type : Progressive
Bits/(Pixel*Frame) : 0.030
Stream size : 119 MiB (86%)
Language : English
Default : Yes
Forced : No

Audio
ID : 2
Format :
Format/Info : Advanced Audio Codec
Format profile : LC
Codec ID : A_AAC-2
Duration : 10 min 35 s
Bit rate : 256 kb/s
Channel(s) : 2 channels
Channel positions : Front: L R
Sampling rate : 44.1 kHz
Frame rate : 43.066 FPS (1024 SPF)
Compression mode : Lossy
Stream size : 19.4 MiB (14%)
Language : Ukrainian
Default : Yes
Forced : No
Скріншоти:


Запис: sergiyko


Бронзовий реліз (на рейтинг впливає 75% завантаженого)
 Трекер:    Зареєстрований   

Завантажити / скачати мультфільм українською



відео для новачків



 Зареєстрований:   2020-07-17 12:59
 Розмір:   8.13 GB 
 Оцінка мультсеріалу:   9.7/10 (Голосів: 7)
   
sergiyko.5 
Забанено
Забанено


З нами з: 25.02.16
Востаннє: 29.10.20
Повідомлень: 3648

2018-09-29 10:34  
Додав 1-8,13,25-40 серії. Нових серій поки що не буде, телеканал почав повторювати мультсеріал з початку.
sergiyko.5 
Забанено
Забанено


З нами з: 25.02.16
Востаннє: 29.10.20
Повідомлень: 3648

2020-07-17 13:00  
Трент оновлено. Додав 41-52 серії. Сезон повний. Приємного перегляду!
Andruxa85 
Новенький


З нами з: 21.01.20
Востаннє: 22.04.21
Повідомлень: 19

2020-07-17 13:05  
sergiyko.5
коли можна буде скачати?

sergiyko.5 
Забанено
Забанено


З нами з: 25.02.16
Востаннє: 29.10.20
Повідомлень: 3648

2020-07-17 13:08  
Після того, як торент перевіриться в клієнті.
Ваш часовий пояс: GMT + 2 Години

Нова тема   Відповісти