Щенячий патруль / PAW Patrol (Сезон 4) (2018) 1080p

Нові коментарі

Нова тема   Відповісти
Автор Повідомлення
sergiyko.5 
Забанено
Забанено


З нами з: 25.02.16
Востаннє: 29.10.20
Повідомлень: 3648

2018-09-12 10:49  
Щенячий патруль / PAW Patrol (Сезон 4) (2018) 1080p


Щенячий патруль / PAW Patrol (Сезон 4) (2018) 1080p

Жанр: дитячий, пригоди
Країна: Канада, США
Режисер: Кейт Чепмен

Сюжет:
"Щенячий патруль" - це цікава задумка, корисні поради та повчальні ситуації. Головний герой, Райдер, 12-ти річний хлопчик. У своєму такому ранньому віці він організував команду з порятунку. Вона складається з самого організатора, тільки тепер він уже керівник сімох щенят.

Райдер дивує людей своїм розумом і розвиненістю не по роках, так як він вже встиг успішно закінчити школу. Багатьом рисам характеру хлопчика варто повчитися: героїзм, відповідальність, доброта, людяність і це не повний список. Щоб патруль працював якомога оперативніше, Райдер забезпечив всією необхідною технікою. Наприклад, щенофоном, спеціально облаштованим пристроєм. Щоб придумати план, команда збирається разом.




Тривалість: 1 серія: 23:13 (цілком серій: 26 з 26)
Якість:

Відео: кодек: розмір кадру: 1920x1080 бітрейт: 2800 кб/с
Аудіо # 1: мова: українська переклад: професійний дубльований кодек: AАС 2.0 бітрейт: 256 кб/с
Озвучення:
Перелік серій
01 Щенята рятують дирижабль / Щенята рятують конкурс з приготування чилі
02 Щенята рятують пінгвінчика / Щенята рятують котяче шоу
03 Щенята рятують грайливого дракона / Щенята рятують тваринок
04 Щеняча місія: пошук корони
05 Щенята рятують нічліг / Щенята рятують карнавал
06 Щенята рятують Джейків торт / Щенята рятують сноубордистів
07 Щеняча місія: королівські привиди / Щенята рятують мавпо-дінгера
08 Щенята рятують летючу їжу / Щенята рятують колесо огляду
09 Щенята рятують ведмедя / Щенята рятують ковбоя Денні
10 Щеняча місія: Цуценята рятують королівський трон
11 Щенята рятують волохатого здоровила / Щенята рятують летючу кицьку
12 Щеняча вечірка з кажанами / Щенята рятують сенсея Юмі
13 Щенята рятують рятують маля осьминога
14 Щенята рятують кошенят-утікачів / Щенята рятують крихітного Маршала
15 Щенята рятуються від спеки / Щенята рятують фермера Алекса
16 Морський патруль: Щенята рятують акулу / Щенята рятують пірс
17 Щенята рятують космічний камінь / Щенята рятують хорошого мера
18 Щенята рятують міську кицю / Щенята рятують хмарного серфера
19 Морський патруль: Щенята-пірати мчать на порятунок
20 Щенята рятують пошту / Щенята рятують мера-жабу
21 Щенята рятують черепашенят / Щенята рятують змерзлих овечок
22 Щенята рятують камбалу / Щенята рятують нарвала
23 Щенята рятують Люка Старса / Щенята рятують день курочки
24 Щенята рятують пінгвіна і Франсуа / Щенята рятують бегемота і хватського Денні
25 Щенята рятують малого Гамдінгера / Щенята рятують піньяту
26 Щенки рятують цуцлантиду
Інформація про файл:
General
Unique ID : 334807636281433505736745331091038951491 (0xFBE19AF0829375CB6090F8A80B8E5843)
Complete name : E:\MULTFILMS\Paw Patrol S04 1080p \S04E01.Pups Save a Blimp-Pups Save a Chili Cook Off.1080p..
Format :
Format version : Version 4 / Version 2
File size : 507 MiB
Duration : 23 min 13 s
Overall bit rate : 3 053 kb/s
Movie name : Paw Patrol S04 1080p by sergiyko
Encoded date : UTC 2018-09-12 07:32:03
Writing application : v26.0.0 ('In The Game') 64-bit
Writing library : libebml v1.3.6 + v1.4.9

Video
ID : 1
Format : AVC
Format/Info : Advanced Video Codec
Format profile : [email protected]
Format settings : CABAC / 6 Ref Frames
Format settings, CABAC : Yes
Format settings, ReFrames : 6 frames
Codec ID : V_MPEG4/ISO/AVC
Duration : 23 min 13 s
Bit rate : 2 795 kb/s
Width : 1 920 pixels
Height : 1 080 pixels
Display aspect ratio : 16:9
Frame rate mode : Constant
Frame rate : 25.000 FPS
Color space : YUV
Chroma subsampling : 4:2:0
Bit depth : 8 bits
Scan type : Progressive
Bits/(Pixel*Frame) : 0.054
Stream size : 464 MiB (92%)
Title : 01 Щенята рятують дирижабль / Щенята рятують конкурс з приготування чилі
Language : English
Default : Yes
Forced : No

Audio
ID : 2
Format :
Format/Info : Advanced Audio Codec
Format profile : LC
Codec ID : A_AAC-2
Duration : 23 min 12 s
Bit rate : 256 kb/s
Channel(s) : 2 channels
Channel positions : Front: L R
Sampling rate : 44.1 kHz
Frame rate : 43.066 FPS (1024 SPF)
Compression mode : Lossy
Stream size : 42.5 MiB (8%)
Title : DUB | ПлюсПлюс
Language : Ukrainian
Default : Yes
Forced : No
Скріншоти:



Реліз: sergiyko



Бронзовий реліз (на рейтинг впливає 75% завантаженого)
 Трекер:    Зареєстрований   

Завантажити / скачати мультфільм українською



відео для новачків



 Зареєстрований:   2018-09-28 11:11
 Розмір:   12.32 GB 
 Оцінка мультсеріалу:   10/10 (Голосів: 21)
   
samurayua 
Новенький


З нами з: 02.12.10
Востаннє: 09.04.21
Повідомлень: 18

2018-09-24 11:45  
Вітаю. Записав з плюс плюс ще одну серію відустню тут. На цей тиждень запрограмую, щоб всі підряд патрулі писав тюнер - раптом ще якусь спіймаю. Кудись вам можна кинути її, щоб додали до релізу?
І підкажіть, будь ласка, що поправити у ваших файлах без втрати якості, а то телевізор самсунг каже: "непідтримуваний формат", супутниковий ресівер - сипле квадратами - не встигає динамічні сцени обробляти. Бітрейт завеликий? Робив 720 зі збереженням бітрейту - телевізор відмовляється так само.

sergiyko.5 
Забанено
Забанено


З нами з: 25.02.16
Востаннє: 29.10.20
Повідомлень: 3648

2018-09-24 12:55  
samurayua
Відсутні серії будуть додаватись.

По кодуванню вам треба самому визначити, які саме файли ваш телевізор підтримує і гарно відтворює, я не можу давати порад на відстані. І також під кожного користувача не можна створити окремі релізи з різними параметрами кодування.

andik1 
Новенький


З нами з: 10.06.12
Востаннє: 19.04.21
Повідомлень: 14

2018-09-25 10:35  
Дякуємо за новий сезон) очікуємо на наступні серії українською!
sergiyko.5 
Забанено
Забанено


З нами з: 25.02.16
Востаннє: 29.10.20
Повідомлень: 3648

2018-09-28 11:11  
Додав всі серії до повного сезону. Приємного перегляду!
fedir3777 
Новенький


З нами з: 15.03.13
Востаннє: 16.04.21
Повідомлень: 7

2018-10-15 19:17  
Дякую Всім хто причетний до перекладу, та розповсюдження, так і команді "Гуртом". Ви робите велику працю. За це велика шана Вам!!!
LeoAlex 
Новенький


З нами з: 29.10.11
Востаннє: 07.04.21
Повідомлень: 1

2018-11-04 12:34  
а буде ріп з оригінальною доріжкою?
Zasranec8087 
Новенький


З нами з: 22.12.14
Востаннє: 21.04.21
Повідомлень: 1

2019-01-15 14:04  
1,2,3 сезони чудово відтворюються на моєму ТВ, на відміну від 4 та 5го, завантажених з Ваших роздач. Підкажіть, яка відмінність між форматами файлів, оскільки на перший погляд, кодеки однакові. Є бажання самостійно переконвертувати відео з останніх сезонів, однак не орієнтуюсь що саме змінювати. Дякую.
Ваш часовий пояс: GMT + 2 Години

Нова тема   Відповісти