Останній легіон / The Last Legion (2007) AVC Ukr/Eng

Нові коментарі

Нова тема   Відповісти
Автор Повідомлення
staf777 
Попереджень: 1
Попереджень: 1 


З нами з: 16.11.16
Востаннє: 23.09.18
Повідомлень: 1520

2018-09-12 09:37  
Останній легіон / The Last Legion (2007) AVC Ukr/Eng

Останній легіон / The Last Legion (2007) AVC Ukr/Eng


Жанр: фентезі, бойовик, пригодницький, військовий
Країна: Франція, Велика Британія, Італія, Туніс



Кінокомпанія: Dino De Laurentiis Company, Quinta Communications, Ingenious Film Partners, Nimar Studios, Zephyr Films
Режисер: Даг Лефтер / Doug Lefler
Актори: Колін Ферт / Colin Firth, Бен Кінґслі / Ben Kingsley, Айшварія Рай / Aishwarya Rai, Кевін МакКідд / Kevin McKidd, Пітер Муллан / Peter Mullan, Джон Ханна / John Hannah та інші

Сюжет:
476 рік нашої ери. Агонія Римської імперії… Династія Цезарів переможена… Останнього імператора, 12-річного Ромулуса Августуса, що керував країною всього лише один день, варвари ув'язнюють у в'язниці на острові Капрі.

Проте з допомогою свого наставника та легіонера Августус здійснює втечу і відправляється в ризиковану подорож до берегів Британії, щоб очолити Дев'ятий легіон, єдиний, що зберіг свою вірність Риму. Останній легіон… Августус повинен врятувати країну, повернути владу, відновити династію. До кого схильні небеса у вирішальній битві?


Тривалість: 01:41:55
Якість: AVC
Відео:
кодек:
розмір кадру: 1024x428
бітрейт: 3500 кб/с

Аудіо # 1: та
мова: українська
переклад: багатоголосий закадровий
кодек: 2.0
бітрейт: 192 кб/с

Аудіо # 2:
мова: англійська
переклад: оригінал
кодек: 5.1
бітрейт: 448 кб/с




MI
General
Unique ID : 100008394805143045026521105352137976443 (0x4B3CEA8DB0E3413937344DEEA6052A7B)
Complete name : S:\The Last Legion (2007) AVC [UKR_ENG] [Hurtom].
Format :
Format version : Version 4 / Version 2
File size : 2.95 GiB
Duration : 1 h 41 min
Overall bit rate : 4 140 kb/s
Movie name : The Last Legion (2007) AVC [UKR_ENG] [Hurtom]
Encoded date : UTC 2018-09-12 05:33:03
Writing application : v24.0.0 ('Beyond The Pale') 64-bit
Writing library : libebml v1.3.6 + v1.4.9
Cover : Yes
Attachments : cover.jpg

Video
ID : 1
Format : AVC
Format/Info : Advanced Video Codec
Format profile : [email protected]
Format settings : CABAC / 8 Ref Frames
Format settings, CABAC : Yes
Format settings, ReFrames : 8 frames
Codec ID : V_MPEG4/ISO/AVC
Duration : 1 h 41 min
Bit rate : 3 500 kb/s
Width : 1 024 pixels
Height : 428 pixels
Display aspect ratio : 2.40:1
Frame rate mode : Constant
Frame rate : 23.976 (24000/1001) FPS
Color space : YUV
Chroma subsampling : 4:2:0
Bit depth : 8 bits
Scan type : Progressive
Bits/(Pixel*Frame) : 0.333
Stream size : 2.49 GiB (84%)
Title : Rip by DenisNN
Writing library : core 114 r1924 08d04a4
Encoding settings : cabac=1 / ref=8 / deblock=1:-2:-2 / analyse=0x3:0x133 / me=umh / subme=9 / psy=1 / psy_rd=1.00:0.20 / mixed_ref=1 / me_range=48 / chroma_me=1 / trellis=2 / 8x8dct=1 / cqm=0 / deadzone=21,11 / fast_pskip=0 / chroma_qp_offset=2 / threads=3 / sliced_threads=0 / nr=0 / decimate=1 / interlaced=0 / constrained_intra=0 / bframes=5 / b_pyramid=2 / b_adapt=2 / b_bias=0 / direct=3 / weightb=1 / open_gop=0 / weightp=2 / keyint=240 / keyint_min=23 / scenecut=40 / intra_refresh=0 / rc=2pass / mbtree=0 / bitrate=3500 / ratetol=1.0 / qcomp=0.60 / qpmin=10 / qpmax=51 / qpstep=4 / cplxblur=20.0 / qblur=0.5 / ip_ratio=1.40 / pb_ratio=1.30 / aq=1:1.10
Language : English
Default : No
Forced : No

Audio #1
ID : 2
Format : AC-3
Format/Info : Audio Coding 3
Codec ID : A_AC3
Duration : 1 h 41 min
Bit rate mode : Constant
Bit rate : 192 kb/s
Channel(s) : 2 channels
Channel positions : Front: L R
Sampling rate : 48.0 kHz
Frame rate : 31.250 FPS (1536 SPF)
Bit depth : 16 bits
Compression mode : Lossy
Stream size : 140 MiB (5%)
Language : Ukrainian
Service kind : Complete Main
Default : Yes
Forced : Yes

Audio #2
ID : 3
Format : AC-3
Format/Info : Audio Coding 3
Codec ID : A_AC3
Duration : 1 h 41 min
Bit rate mode : Constant
Bit rate : 448 kb/s
Channel(s) : 6 channels
Channel positions : Front: L C R, Side: L R, LFE
Sampling rate : 48.0 kHz
Frame rate : 31.250 FPS (1536 SPF)
Bit depth : 16 bits
Compression mode : Lossy
Delay relative to video : 4 s 700 ms
Stream size : 326 MiB (11%)
Language : English
Service kind : Complete Main
Default : No
Forced : No

Menu
00:00:00.000 : :Chapter 01
00:09:07.338 : :Chapter 02
00:18:07.377 : :Chapter 03
00:25:35.825 : :Chapter 04
00:34:07.628 : :Chapter 05
00:43:32.693 : :Chapter 06
00:51:09.399 : :Chapter 07
00:58:58.993 : :Chapter 08
01:07:46.645 : :Chapter 09
01:17:52.042 : :Chapter 10
01:24:08.501 : :Chapter 11
01:34:00.301 : :Chapter 12
Джерело: &
Подяки: - _oles'ю за зведення звуку, drakon87 та akon111 за запис з ТБ; Dj BenLaden'у за українізований постер
Особиста оцінка: 8 - мені сподобалося
Останній легіон / The Last Legion (2007) AVC Ukr/Eng


Останній легіон / The Last Legion (2007) AVC Ukr/Eng


 Трекер:    Зареєстрований   

Завантажити / скачати фільм українською



відео для новачків



 Зареєстрований:   2018-09-14 16:34
 Розмір:   2.95 GB 
 Оцінка фільму:   7.4/10 (Голосів: 7)
   
Інші релізи
MrRyanCooper 
VIP


З нами з: 24.08.12
Востаннє: 23.09.18
Повідомлень: 451

2018-09-12 22:05  
коли?
bot 
робот


З нами з: 30.09.07
Востаннє: 26.05.05
Повідомлень: 19817

2018-09-14 16:34  
Тему перенесено з Анонси релізів до форуму Фільми


staf777

Ваш часовий пояс: GMT + 2 Години

Нова тема   Відповісти