Величний Джо / Jo (Сезон 1) (2013) 720p Ukr/Eng

Нові коментарі

Нова тема   Відповісти
Автор Повідомлення
sergiyko.5 
Забанено
Забанено


З нами з: 25.02.16
Востаннє: 29.10.20
Повідомлень: 3650

2018-09-11 20:50  
Величний Джо / Jo (Сезон 1) (2013) 720p Ukr/Eng


Величний Джо / Jo (Сезон 1) (2013) 720p Ukr/Eng

Жанр: детектив, кримінальний
Країна: Франція, Велика Британія
Кінокомпанія: Atlantique Productions, Radio Télévision Belge Francophone (RTBF), Radio Télévision Suisse
Режисер: Шері Фольксон
Актори: Жан Рено, Джилл Хеннессі, Том Остін, Орла Брейді, Хейді Рід, Кріс Брейзіер

Сюжет:
У центрі уваги Джо Сен-Клер, детектив, у кримінальному відділі він справжній ас. У розкритті непростих злочинів він завжди перший. Париж приваблює своїми чудовими місцями не тільки туристів, але і злочинців. Детектив з гострим розумом може передбачити наступний крок порушника закону, слідуючи його логіці.

Тепер жоден вбивця не залишиться безкарним. Чому Джо так добре знає кримінальний світ? У минулому він чистив кишені перехожих, займався викраденням авто. Саме тому харизматичний детектив легко зчитує думки злочинців. Баярд - партнер Джо, молодий поліцейський, який підтримує зовсім інші методи в роботі.




Тривалість: 1 серія: 46:00 (цілком серій: 8)
Якість:

Відео: кодек: розмір кадру: 1280 х 720 бітрейт: 2900 кб/с
Аудіо # 1: мова: українська переклад: професійний дубльований кодек: 2.0 бітрейт: 192 кб/с
Озвучення:
Аудіо # 2: мова: англійська переклад: оригінал кодек: 5.1 бітрейт: 640 кб/с
Перелік серій
01. Notre-Dame
02. Concorde
03. Invalides
04. Pigalle
05. Place Vendôme
06. Le Marais
07. Opera
08. Catacombs
Info
General
Unique ID : 272268429455788974835246264711988984149 (0xCCD4FDFB93DA53DF8D8BB3FC92BD3955)
Complete name : E:\FILMS\Jo S01 2013 720p \Jo.S01E01.2013.720p..Ukr.Eng.
Format :
Format version : Version 4 / Version 2
File size : 1.22 GiB
Duration : 46 min 0 s
Overall bit rate : 3 805 kb/s
Movie name : Jo S01 2013 720p by sergiyko
Encoded date : UTC 2018-09-10 21:30:37
Writing application : v26.0.0 ('In The Game') 64-bit
Writing library : libebml v1.3.6 + v1.4.9

Video
ID : 1
Format : AVC
Format/Info : Advanced Video Codec
Format profile : [email protected]
Format settings : CABAC / 5 Ref Frames
Format settings, CABAC : Yes
Format settings, ReFrames : 5 frames
Codec ID : V_MPEG4/ISO/AVC
Duration : 46 min 0 s
Bit rate : 2 971 kb/s
Width : 1 280 pixels
Height : 720 pixels
Display aspect ratio : 16:9
Frame rate mode : Constant
Frame rate : 25.000 FPS
Color space : YUV
Chroma subsampling : 4:2:0
Bit depth : 8 bits
Scan type : Progressive
Bits/(Pixel*Frame) : 0.129
Stream size : 978 MiB (78%)
Title : S01E01
Writing library : core 135 r2345 f0c1c53
Encoding settings : cabac=1 / ref=5 / deblock=1:-3:-3 / analyse=0x3:0x133 / me=umh / subme=7 / psy=1 / psy_rd=1.00:0.15 / mixed_ref=1 / me_range=16 / chroma_me=1 / trellis=1 / 8x8dct=1 / cqm=0 / deadzone=21,11 / fast_pskip=0 / chroma_qp_offset=-3 / threads=12 / lookahead_threads=2 / sliced_threads=0 / nr=0 / decimate=1 / interlaced=0 / bluray_compat=0 / constrained_intra=0 / bframes=3 / b_pyramid=2 / b_adapt=1 / b_bias=0 / direct=3 / weightb=1 / open_gop=0 / weightp=2 / keyint=250 / keyint_min=25 / scenecut=40 / intra_refresh=0 / rc_lookahead=40 / rc=crf / mbtree=1 / crf=20.0 / qcomp=0.60 / qpmin=0 / qpmax=69 / qpstep=4 / vbv_maxrate=50000 / vbv_bufsize=62500 / crf_max=0.0 / nal_hrd=none / ip_ratio=1.40 / aq=1:1.00
Language : English
Default : Yes
Forced : No

Audio #1
ID : 2
Format : AC-3
Format/Info : Audio Coding 3
Codec ID : A_AC3
Duration : 45 min 59 s
Bit rate mode : Constant
Bit rate : 192 kb/s
Channel(s) : 2 channels
Channel positions : Front: L R
Sampling rate : 48.0 kHz
Frame rate : 31.250 FPS (1536 SPF)
Bit depth : 16 bits
Compression mode : Lossy
Stream size : 63.2 MiB (5%)
Title : DUB | 1+1
Language : Ukrainian
Service kind : Complete Main
Default : Yes
Forced : Yes

Audio #2
ID : 3
Format : AC-3
Format/Info : Audio Coding 3
Codec ID : A_AC3
Duration : 45 min 59 s
Bit rate mode : Constant
Bit rate : 640 kb/s
Channel(s) : 6 channels
Channel positions : Front: L C R, Side: L R, LFE
Sampling rate : 48.0 kHz
Frame rate : 31.250 FPS (1536 SPF)
Bit depth : 16 bits
Compression mode : Lossy
Stream size : 211 MiB (17%)
Title : Original
Language : English
Service kind : Complete Main
Default : No
Forced : No

Menu
00:00:00.000 : en:00:00:00.000
00:03:23.760 : en:00:03:23.760
00:20:58.680 : en:00:20:58.680
00:32:15.640 : en:00:32:15.640
00:41:23.920 : en:00:41:23.920
Скріншоти:


Запис/синхронізація: sergiyko


Бронзовий реліз (на рейтинг впливає 75% завантаженого)
 Трекер:    Зареєстрований   

Завантажити / скачати серіал українською



відео для новачків



 Зареєстрований:   2018-09-11 20:50
 Розмір:   9.44 GB 
 Оцінка серіалу:   8.9/10 (Голосів: 11)
   
zaika 
VIP


З нами з: 01.07.12
Востаннє: 01.12.20
Повідомлень: 1243

2018-11-20 07:32  
Чому Величний Джо? Брудний Джо більш підходить. 8/10
Ваш часовий пояс: GMT + 2 Години

Нова тема   Відповісти