Хребет диявола / The Devil's Backbone / El espinazo del diablo (2001) 1080p Ukr/Esp | Sub Ukr/Esp

Нові коментарі

Нова тема   Відповісти
Автор Повідомлення
staf777 
Попереджень: 1
Попереджень: 1 


З нами з: 16.11.16
Востаннє: 19.10.18
Повідомлень: 1637

2018-09-11 19:46  
Хребет диявола / The Devil's Backbone / El espinazo del diablo (2001) 1080p Ukr/Esp | Sub Ukr/Esp

Хребет диявола / The Devil's Backbone / El espinazo del diablo (2001) 1080p Ukr/Esp | Sub Ukr/Esp


Жанр: драма, фентезі, жахи
Країна: Іспанія, Мексика



Кінокомпанія: El Deseo S.A., Tequila Gang, Sogepaq
Режисер: Ґільєрмо Дель Торо / Guillermo Del Toro
Актори: Маріса Паредес / Marisa Paredes, Едуардо Нор'єґа / Eduardo Noriega, Фредеріко Луппі / Federico Luppi, Фернандо Телве / Fernando Tielve, Ініґо Ґарсес / Íñigo Garcés, Ірен Віседо / Irene Visedo, Хосе Мануель Лоренцо / José Manuel Lorenzo, Франціско Маестре / Francisco Maestre, Хуніо Вальверде / Junio Valverde, Берта Охеа / Berta Ojea

Сюжет:
Дія фільму відбувається під час громадянської війни в Іспанії. Дванадцятирічний Карлос потрапляє до сирітського притулку, де стикається із таємничим привидом хлопчика Санті. Привид переслідує Карлоса, проте не відкриває своєї таємниці.
Паралельно з цими пригодами у притулку розгортається правдива драма за участі дорослих. Тут вирують воістину іспанські пристрасті, сповнені ревнощів, ненависти та жадоби золота. У фіналі картини дві лінії зійдуться, аби по-своєму звершити сюжет.
«Хребет диявола» став першою частиною трилогії про громадянську війну в Іспанії, яку Дель Торо вважає «останнім романтичним місцем, де відбулася війна з фашизмом». І прикметно, що це війна не тільки на рівні фізичному, реальному, побутовому, але й на метафізичному також.


Тривалість: 01:47:50
Якість: 1080p
Відео:
кодек:
розмір кадру: 1920х1040
бітрейт: 18,8 Мб/с

Аудіо # 1:
мова:українська
переклад: двоголосий закадровий | Студія "Кіт"
кодек: 2.0
бітрейт: 192 кб/с

Аудіо # 2:
мова: іспанська
переклад: оригінал
кодек: 5.1
бітрейт: 1509 кб/с

Субтитри:
мова: українська
тип: програмні (м'які)
формат: *.srt

Субтитри:
мова: іспанська
тип: програмні (м'які)
формат: *.srt
Info
General
Unique ID : 116520453070279848246511377037052247321 (0x57A905E15F5E662CBE6A5D7E22E27D19)
Complete name : S:\Фільми в HD\The Devil's Backbone (2001) 1080p [UKR_ENG] [Hurtom].
Format :
Format version : Version 4 / Version 2
File size : 15.4 GiB
Duration : 1 h 47 min
Overall bit rate : 20.5 Mb/s
Movie name : The Devil's Backbone (2001) 1080p [UKR_ENG] [Hurtom]
Encoded date : UTC 2018-09-11 16:44:59
Writing application : v24.0.0 ('Beyond The Pale') 64-bit
Writing library : libebml v1.3.6 + v1.4.9
Cover : Yes
Attachments : cover.jpg

Video
ID : 1
Format : AVC
Format/Info : Advanced Video Codec
Format profile : [email protected]
Format settings : CABAC / 4 Ref Frames
Format settings, CABAC : Yes
Format settings, ReFrames : 4 frames
Codec ID : V_MPEG4/ISO/AVC
Duration : 1 h 47 min
Bit rate : 18.8 Mb/s
Width : 1 920 pixels
Height : 1 040 pixels
Display aspect ratio : 1.85:1
Frame rate mode : Constant
Frame rate : 23.976 (24000/1001) FPS
Color space : YUV
Chroma subsampling : 4:2:0
Bit depth : 8 bits
Scan type : Progressive
Bits/(Pixel*Frame) : 0.392
Stream size : 14.1 GiB (92%)
Writing library : core 135 r2345 f0c1c53
Encoding settings : cabac=1 / ref=4 / deblock=1:-3:-3 / analyse=0x3:0x113 / me=tesa / subme=10 / psy=1 / psy_rd=1.05:0.00 / mixed_ref=1 / me_range=16 / chroma_me=1 / trellis=2 / 8x8dct=1 / cqm=0 / deadzone=21,11 / fast_pskip=0 / chroma_qp_offset=-2 / threads=18 / lookahead_threads=3 / sliced_threads=0 / nr=0 / decimate=0 / interlaced=0 / bluray_compat=0 / constrained_intra=0 / bframes=7 / b_pyramid=2 / b_adapt=2 / b_bias=0 / direct=3 / weightb=1 / open_gop=0 / weightp=2 / keyint=250 / keyint_min=23 / scenecut=40 / intra_refresh=0 / rc=crf / mbtree=0 / crf=18.0 / qcomp=0.70 / qpmin=0 / qpmax=69 / qpstep=4 / ip_ratio=1.30 / pb_ratio=1.30 / aq=1:0.75 / zones=149656,155136,crf=30
Language : English
Default : Yes
Forced : No

Audio #1
ID : 2
Format : AC-3
Format/Info : Audio Coding 3
Codec ID : A_AC3
Duration : 1 h 47 min
Bit rate mode : Constant
Bit rate : 192 kb/s
Channel(s) : 2 channels
Channel positions : Front: L R
Sampling rate : 48.0 kHz
Frame rate : 31.250 FPS (1536 SPF)
Bit depth : 16 bits
Compression mode : Lossy
Stream size : 148 MiB (1%)
Title : DVO | Студія "Кіт"
Language : Ukrainian
Service kind : Complete Main
Default : Yes
Forced : Yes

Audio #2
ID : 3
Format :
Format/Info : Digital Theater Systems
Codec ID : A_DTS
Duration : 1 h 47 min
Bit rate mode : Constant
Bit rate : 1 509 kb/s
Channel(s) : 5 channels
Channel positions : Front: L C R, Side: L R
Sampling rate : 48.0 kHz
Frame rate : 93.750 FPS (512 SPF)
Bit depth : 24 bits
Compression mode : Lossy
Stream size : 1.14 GiB (7%)
Title : Original
Language : Spanish
Default : No
Forced : No

Text #1
ID : 4
Format : UTF-8
Codec ID : S_TEXT/UTF8
Codec ID/Info : UTF-8 Plain Text
Duration : 1 h 43 min
Bit rate : 42 b/s
Count of elements : 648
Stream size : 31.9 KiB (0%)
Language : Ukrainian
Default : No
Forced : No

Text #2
ID : 5
Format : UTF-8
Codec ID : S_TEXT/UTF8
Codec ID/Info : UTF-8 Plain Text
Duration : 1 h 43 min
Bit rate : 27 b/s
Count of elements : 715
Stream size : 20.6 KiB (0%)
Language : Spanish
Default : No
Forced : No

Menu
00:00:00.000 : en:Opening credits
00:03:54.943 : en:Carlos
00:06:57.667 : en:Galvez and Owl
00:09:51.049 : en:Left behind
00:12:54.399 : en:Bed no. 12
00:14:32.330 : en:Jacinto and Conchita
00:17:24.669 : en:The One Who Sighs
00:20:46.287 : en:Off-limits for orphans
00:26:48.398 : en:"Many of you will die"
00:37:40.967 : en:At the pool
00:40:37.310 : en:The Devil's Backbone
00:42:48.357 : en:Swap meet
00:44:56.944 : en:The last time
00:47:43.152 : en:The legend of Santi
00:54:18.547 : en:Condemned
00:55:42.464 : en:"Show me where Santi is"
01:00:23.036 : en:"We have to go"
01:02:02.427 : en:Prince without a kingdom
01:06:25.231 : en:Prophecy fulfilled
01:10:26.597 : en:A new poem
01:15:53.758 : en:Armed and waiting
01:17:31.272 : en:The truth revealed
01:23:38.263 : en:"Say you're sorry"
01:28:08.950 : en:Santi's wish
01:29:44.045 : en:Jacinto returns
01:31:30.276 : en:Escape
01:37:20.043 : en:Gold
01:39:22.081 : en:A fitting punishment
Скріншоти




Висловлюю подяку п. xslim за наданий сирий звук, п. karvai0 за синхронізацію і п. Віктор за відредаговані українські субтитри.
Джерело: &
Особиста оцінка: 8 - мені сподобалося
Хребет диявола / The Devil's Backbone / El espinazo del diablo (2001) 1080p Ukr/Esp | Sub Ukr/Esp


Хребет диявола / The Devil's Backbone / El espinazo del diablo (2001) 1080p Ukr/Esp | Sub Ukr/Esp


Срібний реліз (на рейтинг впливає 50% завантаженого)
 Трекер:    Зареєстрований   

Завантажити / скачати фільм українською



відео для новачків



 Зареєстрований:   2018-09-12 09:20
 Розмір:   15.41 GB 
 Оцінка фільму:   10/10 (Голосів: 1)
   
bot 
робот


З нами з: 30.09.07
Востаннє: 26.05.05
Повідомлень: 19962

2018-09-12 09:20  
Тему перенесено з Анонси релізів до форуму Фільми в HD


staf777

Ваш часовий пояс: GMT + 2 Години

Нова тема   Відповісти