Трон: Спадок / TRON: Legacy (2010) 1080p H.265 Ukr/Eng | Sub Ukr/Eng

Нові коментарі

Нова тема   Відповісти
Автор Повідомлення
-Star-Lord- 
Поважний учасник


З нами з: 09.08.18
Востаннє: 19.10.18
Повідомлень: 209

2018-09-11 17:11  
Трон: Спадок / TRON: Legacy (2010) 1080p H.265 Ukr/Eng | Sub Ukr/Eng

Трон: Спадок / TRON: Legacy (2010) 1080p H.265 Ukr/Eng | Sub Ukr/Eng


Жанр: триллер, Бойовик, Фантастика, Пригодницький
Країна: США



Кінокомпанія: Walt Disney Pictures
Режисер: Джозеф Косінскі
Актори: Джефф Бріджес, Гаррет Хедлунд, Олівія Вайлд, Майкл Шин, Джон Херт, Серінда Свон, Джеймс Фрейн, Брюс Бокслейтнер, Бо Гаррет, Йайа ДаКоста

Сюжет:
Сем Флінн, технічно обдарований 27-річний син Кевіна Флінна, починає розслідувати зникнення свого батька і опиняється втягнутим у світ жорстоких програм і гладіаторських ігор, в якому його батько жив впродовж 25 років. Разом з помічницею Кевіна, батько і син вирушають у ризиковану подорож за життям по приголомлшливому кібер-всесвіту, який став ще досконалішим і надзвичайно небезпечним.


Тривалість: 02:05:08
Якість:
Відео:
кодек: H.265 (HEVC)
розмір кадру: 1920 х 816
бітрейт: 6 091 кб/с
бітова глибина: 10 біт
Увага! Перед завантаженням переконайтесь, що ваш пристрій відтворення (та/або ПЗ) підтримує H.265 (HEVC)

Аудіо # 1:
мова: українська
переклад: професійний дубльований
кодек: 5.1
бітрейт: 640 кб/с

Аудіо # 2:
мова: англійська
переклад: оригінал
кодек: 5.1
бітрейт: 640 кб/с

Субтитри # 1-2:
мова: українська (Forced, Full)
тип: програмні (м'які)
формат: *.srt

Субтитри # 3:
мова: англійська (Full)
тип: програмні (м'які)
формат: *.srt


Info
Код:
General
Unique ID                                : 318329417336283255176430842812463333738 (0xEF7C040518132B9B108657CAE808416A)
Complete name                            : F:\Video\Tron. Legacy (2010) 1080p H.265 [UKR_ENG].
Format                                   :
Format version                           : Version 4 / Version 2
File size                                : 6.45 GiB
Duration                                 : 2 h 5 min
Overall bit rate                         : 7 374 kb/s
Movie name                               : TRON: Legacy (2010)
Encoded date                             : UTC 2018-09-11 13:43:47
Writing application                      : v20.0.0 ('I Am The Sun') 32-bit
Writing library                          : libebml v1.3.5 + v1.4.8
Cover                                    : Yes
Attachments                              : cover.jpg

Video
ID                                       : 1
Format                                   : HEVC
Format/Info                              : High Efficiency Video Coding
Format profile                           : Main [email protected]@High
Codec ID                                 : V_MPEGH/ISO/HEVC
Duration                                 : 2 h 5 min
Bit rate                                 : 6 091 kb/s
Width                                    : 1 920 pixels
Height                                   : 816 pixels
Display aspect ratio                     : 2.35:1
Frame rate mode                          : Constant
Frame rate                               : 23.976 (24000/1001) FPS
Color space                              : YUV
Chroma subsampling                       : 4:2:0
Bit depth                                : 10 bits
Bits/(Pixel*Frame)                       : 0.162
Stream size                              : 5.32 GiB (83%)
Writing library                          : x265 2.8+19-bcdc610cf5f0:[Windows][GCC 7.3.0][64 bit] 10bit
Encoding settings                        : cpuid=1111039 / frame-threads=9 / numa-pools=8 / wpp / no-pmode / no-pme / no-psnr / no-ssim / log-level=3 / input-csp=1 / input-res=1920x816 / interlace=0 / total-frames=0 / level-idc=41 / high-tier=1 / uhd-bd=0 / ref=5 / allow-non-conformance / no-repeat-headers / annexb / aud / no-hrd / info / hash=0 / no-temporal-layers / no-open-gop / min-keyint=24 / keyint=240 / gop-lookahead=0 / bframes=8 / b-adapt=2 / b-pyramid / bframe-bias=0 / rc-lookahead=20 / lookahead-slices=5 / scenecut=40 / radl=0 / no-intra-refresh / ctu=64 / min-cu-size=8 / no-rect / no-amp / max-tu-size=32 / tu-inter-depth=1 / tu-intra-depth=1 / limit-tu=0 / rdoq-level=0 / dynamic-rd=0.00 / no-ssim-rd / signhide / no-tskip / nr-intra=0 / nr-inter=0 / no-constrained-intra / strong-intra-smoothing / max-merge=2 / limit-refs=3 / no-limit-modes / me=3 / subme=7 / merange=57 / temporal-mvp / weightp / no-weightb / no-analyze-src-pics / deblock=-3:-3 / no-sao / no-sao-non-deblock / rd=3 / no-early-skip / rskip / no-fast-intra / no-tskip-fast / no-cu-lossless / no-b-intra / no-splitrd-skip / rdpenalty=0 / psy-rd=2.00 / psy-rdoq=0.00 / no-rd-refine / no-lossless / cbqpoffs=0 / crqpoffs=0 / rc=crf / crf=20.0 / qcomp=0.75 / qpstep=4 / stats-write=0 / stats-read=0 / vbv-maxrate=40000 / vbv-bufsize=30000 / vbv-init=0.9 / crf-max=0.0 / crf-min=0.0 / ipratio=1.40 / pbratio=1.30 / aq-mode=1 / aq-strength=1.00 / cutree / zone-count=0 / no-strict-cbr / qg-size=32 / no-rc-grain / qpmax=69 / qpmin=0 / no-const-vbv / sar=1 / overscan=0 / videoformat=5 / range=0 / colorprim=1 / transfer=1 / colormatrix=1 / chromaloc=0 / display-window=0 / max-cll=0,0 / min-luma=0 / max-luma=1023 / log2-max-poc-lsb=8 / vui-timing-info / vui-hrd-info / slices=1 / no-opt-qp-pps / no-opt-ref-list-length-pps / no-multi-pass-opt-rps / scenecut-bias=0.05 / no-opt-cu-delta-qp / no-aq-motion / no-hdr / no-hdr-opt / no-dhdr10-opt / no-idr-recovery-sei / analysis-reuse-level=5 / scale-factor=0 / refine-intra=0 / refine-inter=0 / refine-mv=0 / no-limit-sao / ctu-info=0 / no-lowpass-dct / refine-mv-type=0 / copy-pic=1 / max-ausize-factor=1.0 / no-dynamic-refine / no-single-sei
Default                                  : Yes
Forced                                   : No
Color range                              : Limited
Color primaries                          : BT.709
Transfer characteristics                 : BT.709
Matrix coefficients                      : BT.709

Audio #1
ID                                       : 2
Format                                   : AC-3
Format/Info                              : Audio Coding 3
Codec ID                                 : A_AC3
Duration                                 : 2 h 5 min
Bit rate mode                            : Constant
Bit rate                                 : 640 kb/s
Channel(s)                               : 6 channels
Channel positions                        : Front: L C R, Side: L R, LFE
Sampling rate                            : 48.0 kHz
Frame rate                               : 31.250 FPS (1536 SPF)
Bit depth                                : 16 bits
Compression mode                         : Lossy
Stream size                              : 573 MiB (9%)
Title                                    : Blu-Ray
Language                                 : Ukrainian
Service kind                             : Complete Main
Default                                  : Yes
Forced                                   : No

Audio #2
ID                                       : 3
Format                                   : AC-3
Format/Info                              : Audio Coding 3
Codec ID                                 : A_AC3
Duration                                 : 2 h 5 min
Bit rate mode                            : Constant
Bit rate                                 : 640 kb/s
Channel(s)                               : 6 channels
Channel positions                        : Front: L C R, Side: L R, LFE
Sampling rate                            : 48.0 kHz
Frame rate                               : 31.250 FPS (1536 SPF)
Bit depth                                : 16 bits
Compression mode                         : Lossy
Stream size                              : 573 MiB (9%)
Title                                    : Original
Language                                 : English
Service kind                             : Complete Main
Default                                  : No
Forced                                   : No

Text #1
ID                                       : 4
Format                                   : UTF-8
Codec ID                                 : S_TEXT/UTF8
Codec ID/Info                            : UTF-8 Plain Text
Duration                                 : 1 h 58 min
Bit rate                                 : 0 b/s
Count of elements                        : 12
Stream size                              : 390 Bytes (0%)
Title                                    : Forced
Language                                 : Ukrainian
Default                                  : Yes
Forced                                   : Yes

Text #2
ID                                       : 5
Format                                   : UTF-8
Codec ID                                 : S_TEXT/UTF8
Codec ID/Info                            : UTF-8 Plain Text
Duration                                 : 1 h 59 min
Bit rate                                 : 58 b/s
Count of elements                        : 1073
Stream size                              : 50.6 KiB (0%)
Title                                    : Full
Language                                 : Ukrainian
Default                                  : No
Forced                                   : No

Text #3
ID                                       : 6
Format                                   : UTF-8
Codec ID                                 : S_TEXT/UTF8
Codec ID/Info                            : UTF-8 Plain Text
Duration                                 : 1 h 56 min
Bit rate                                 : 36 b/s
Count of elements                        : 1061
Stream size                              : 30.9 KiB (0%)
Title                                    : Full
Language                                 : English
Default                                  : No
Forced                                   : No

Menu
00:00:00.000                             : :Глава 1
00:04:07.163                             : :Глава 2
00:14:44.133                             : :Глава 3
00:23:15.602                             : :Глава 4
00:26:52.694                             : :Глава 5
00:36:12.211                             : :Глава 6
00:38:35.980                             : :Глава 7
00:46:52.726                             : :Глава 8
00:53:03.763                             : :Глава 9
01:04:54.181                             : :Глава 10
01:13:47.423                             : :Глава 11
01:19:00.944                             : :Глава 12
01:22:40.455                             : :Глава 13
01:25:50.895                             : :Глава 14
01:28:11.828                             : :Глава 15
01:31:42.413                             : :Глава 16
01:43:13.061                             : :Глава 17
01:48:18.033                             : :Глава 18
01:54:48.381                             : :Глава 19
01:58:03.659                             : :Глава 20
02:05:08.417                             : :Глава 21
Скріншоти




Джерело:
Особиста оцінка: 10 - без зайвих вагань рекомендую всім!


 Трекер:    Зареєстрований   

Завантажити / скачати фільм українською



відео для новачків



 Зареєстрований:   2018-09-11 17:11
 Розмір:   6.45 GB 
 Оцінка фільму:   6.9/10 (Голосів: 9)
   
Інші релізи
   Трон: Спадок / TRON: Legacy (2010) 720p-mini (60fps) | IMAX Drool  0 / 0   6.38 GB   2015-03-02 14:37 
   Трон: Спадок / TRON: Legacy (2010) Blu-Ray 1080p Multi | Sub Multi Drool  2 / 0   38.31 GB   2013-09-06 13:02 
   Трон: Спадок / TRON: Legacy (2010) 1080p Ukr | Sub Ukr/Eng sergiyko  4 / 0   12.3 GB   2013-09-03 20:50 
   Трон: Спадок / TRON: Legacy (2010) 720p Drool  0 / 0   4.19 GB   2012-06-27 08:45 
   Трон: Спадок / TRON: Legacy (2010) 1080p-mini Zeus62  2 / 0   4.34 GB   2011-04-03 01:22 
   Трон: Спадок / TRON: Legacy (2010) 1080p 3D [OverUnder] Ukr/Eng | Sub Ukr/Eng Бузьок  1 / 0   17.53 GB   2011-03-20 22:59 
   Трон: Спадок / TRON: Legacy (2010) FaB0SS  2 / 0   1.45 GB   2011-03-10 22:58 
   Трон: Спадок / TRON: Legacy (2010) Ukr/Eng | Sub 2хUkr/Eng antik_2008  5 / 0   2.55 GB   2011-03-10 19:54 
   Трон: Спадок / TRON: Legacy (2010) 720p Ukr/Eng | Sub Ukr/Eng Andick  2 / 0   7.1 GB   2011-03-10 19:29 
Ваш часовий пояс: GMT + 2 Години

Нова тема   Відповісти