Кінець Світу / The World's End (2013) 1080p H.265 2xUkr/Eng | Sub Ukr/Eng

Нові коментарі

Нова тема   Відповісти
Автор Повідомлення
Anonymous 







2018-09-11 16:31  
Кінець Світу / The World's End (2013) 1080p H.265 3xUkr/Eng | Sub Ukr/Eng

Кінець Світу / The World's End (2013) 1080p H.265 2xUkr/Eng | Sub Ukr/Eng


Жанр: комедія, фантастика
Країна: Англія, США, Японія
Кінокомпанія: Big Talk Productions, Relativity Media, Working Title Films
Режисер: Едгар Райт
Актори: Саймон Пегг, Нік Фрост, Педді Консидайн, Мартін Фріман, Едді Марсан, Розамунд Пайк, Пірс Броснан, Девід Бредлі, Майкл Смайлі, Стів Орам та інші.

Сюжет:
П'ятеро друзів дитинства, що знову зібрались через 20 років, аби нарешті подолати епічний шлях пивного паломництва, випадково стають останньою надією на порятунок для усього людства.....

Тривалість: 01:49:07
Якість:

Відео:
кодек: H.265 (HEVC)
розмір кадру: 1920 x 816
бітрейт: 7 506 кб/с
бітова глибина: 10 біт

Увага! Перед завантаженням переконайтесь, що ваш пристрій відтворення (та/або ПЗ) підтримує H.265 (HEVC)

Аудіо # 1:
мова: українська
переклад: багатоголосий закадровий | Омікрон
кодек: 5.1
бітрейт: 1510 кб/с

Аудіо # 2:
мова: українська
переклад: багатоголосий закадровий
кодек: AC-3 2.0
бітрейт: 192 кб/с

Аудіо # 3:
мова: українська
переклад: багатоголосий закадровий
кодек: AC-3 2.0
бітрейт: 192 кб/с

Аудіо # 4:
мова: англійська
переклад: оригінал
кодек: 5.1
бітрейт: 1510 кб/с

Субтитри # 1: (Full)
мова: українська
тип: програмні (м'які)
формат: *.srt

Субтитри # 2-4: (Full, SDH, SDH-Colored)
мова: англійська
тип: програмні (м'які)
формат: *.srt


Info
Код:
General
Unique ID                                : 322826194232244908791543675716927993213 (0xF2DE103CFA47088B0FDE0AB325FBB57D)
Complete name                            : The World's End (2013) 1080p H.265 [3xUKR_ENG] [Hurtom].
Format                                   :
Format version                           : Version 4
File size                                : 8.32 GiB
Duration                                 : 1 h 49 min
Overall bit rate                         : 10.9 Mb/s
Movie name                               : Кінець Світу / The World's End (2013)
Encoded date                             : UTC 2020-04-05 12:37:26
Writing application                      : v20.0.0 ('I Am The Sun') 64-bit
Writing library                          : libebml v1.3.5 + v1.4.8
Cover                                    : Yes
Attachments                              : cover.jpg

Video
ID                                       : 1
Format                                   : HEVC
Format/Info                              : High Efficiency Video Coding
Format profile                           : Main [email protected]@Main
Codec ID                                 : V_MPEGH/ISO/HEVC
Duration                                 : 1 h 49 min
Bit rate                                 : 7 506 kb/s
Width                                    : 1 920 pixels
Height                                   : 816 pixels
Display aspect ratio                     : 2.35:1
Frame rate mode                          : Constant
Frame rate                               : 23.976 (24000/1001) FPS
Color space                              : YUV
Chroma subsampling                       : 4:2:0
Bit depth                                : 10 bits
Bits/(Pixel*Frame)                       : 0.200
Stream size                              : 5.72 GiB (69%)
Title                                    : Кінець Світу / The World's End (2013)
Writing library                          : x265 2.8+3-450421921079:[Windows][GCC 6.3.0][64 bit] 10bit
Encoding settings                        : cpuid=1111039 / frame-threads=16 / numa-pools=8,8 / wpp / no-pmode / no-pme / no-psnr / no-ssim / log-level=2 / input-csp=1 / input-res=1920x816 / interlace=0 / total-frames=156984 / level-idc=51 / high-tier=1 / uhd-bd=0 / ref=5 / no-allow-non-conformance / no-repeat-headers / annexb / no-aud / no-hrd / info / hash=0 / no-temporal-layers / no-open-gop / min-keyint=1 / keyint=360 / gop-lookahead=0 / bframes=8 / b-adapt=2 / b-pyramid / bframe-bias=0 / rc-lookahead=80 / lookahead-slices=4 / scenecut=40 / radl=0 / no-intra-refresh / ctu=32 / min-cu-size=8 / no-rect / no-amp / max-tu-size=16 / tu-inter-depth=4 / tu-intra-depth=4 / limit-tu=0 / rdoq-level=1 / dynamic-rd=0.00 / no-ssim-rd / signhide / no-tskip / nr-intra=0 / nr-inter=0 / no-constrained-intra / no-strong-intra-smoothing / max-merge=5 / limit-refs=3 / limit-modes / me=3 / subme=7 / merange=60 / temporal-mvp / weightp / weightb / no-analyze-src-pics / deblock=-2:-2 / no-sao / no-sao-non-deblock / rd=4 / no-early-skip / rskip / no-fast-intra / no-tskip-fast / no-cu-lossless / b-intra / no-splitrd-skip / rdpenalty=2 / psy-rd=1.50 / psy-rdoq=5.00 / no-rd-refine / no-lossless / cbqpoffs=0 / crqpoffs=0 / rc=abr / bitrate=7517 / qcomp=0.80 / qpstep=4 / stats-write=0 / stats-read=2 / cplxblur=20.0 / qblur=0.5 / ipratio=1.40 / pbratio=1.20 / aq-mode=1 / aq-strength=1.00 / cutree / zone-count=0 / no-strict-cbr / qg-size=16 / no-rc-grain / qpmax=69 / qpmin=0 / no-const-vbv / sar=1 / overscan=0 / videoformat=5 / range=0 / colorprim=1 / transfer=1 / colormatrix=1 / chromaloc=0 / display-window=0 / max-cll=0,0 / min-luma=0 / max-luma=1023 / log2-max-poc-lsb=8 / vui-timing-info / vui-hrd-info / slices=1 / no-opt-qp-pps / no-opt-ref-list-length-pps / no-multi-pass-opt-rps / scenecut-bias=0.05 / no-opt-cu-delta-qp / no-aq-motion / no-hdr / no-hdr-opt / no-dhdr10-opt / no-idr-recovery-sei / analysis-reuse-level=5 / scale-factor=0 / refine-intra=0 / refine-inter=0 / refine-mv=0 / no-limit-sao / ctu-info=0 / no-lowpass-dct / refine-mv-type=0 / copy-pic=1 / max-ausize-factor=1.0 / no-dynamic-refine / no-single-sei
Default                                  : Yes
Forced                                   : No
Color range                              : Limited
Color primaries                          : BT.709
Transfer characteristics                 : BT.709
Matrix coefficients                      : BT.709

Audio #1
ID                                       : 2
Format                                   :
Format/Info                              : Digital Theater Systems
Codec ID                                 : A_DTS
Duration                                 : 1 h 49 min
Bit rate mode                            : Constant
Bit rate                                 : 1 509 kb/s
Channel(s)                               : 6 channels
Channel layout                           : C L R Ls Rs LFE
Sampling rate                            : 48.0 kHz
Frame rate                               : 93.750 FPS (512 SPF)
Bit depth                                : 24 bits
Compression mode                         : Lossy
Stream size                              : 1.15 GiB (14%)
Title                                    : / 5.1 Ch / 1509 kbps / БЗ / Omikron
Language                                 : Ukrainian
Default                                  : Yes
Forced                                   : Yes

Audio #2
ID                                       : 3
Format                                   : AC-3
Format/Info                              : Audio Coding 3
Commercial name                          : Dolby Digital
Codec ID                                 : A_AC3
Duration                                 : 1 h 49 min
Bit rate mode                            : Constant
Bit rate                                 : 192 kb/s
Channel(s)                               : 2 channels
Channel layout                           : L R
Sampling rate                            : 48.0 kHz
Frame rate                               : 31.250 FPS (1536 SPF)
Compression mode                         : Lossy
Stream size                              : 150 MiB (2%)
Title                                    : / 2.0 Ch / 192 kbps / БЗ / Cine+
Language                                 : Ukrainian
Service kind                             : Complete Main
Default                                  : No
Forced                                   : No

Audio #3
ID                                       : 4
Format                                   : AC-3
Format/Info                              : Audio Coding 3
Commercial name                          : Dolby Digital
Codec ID                                 : A_AC3
Duration                                 : 1 h 49 min
Bit rate mode                            : Constant
Bit rate                                 : 192 kb/s
Channel(s)                               : 2 channels
Channel layout                           : L R
Sampling rate                            : 48.0 kHz
Frame rate                               : 31.250 FPS (1536 SPF)
Compression mode                         : Lossy
Stream size                              : 150 MiB (2%)
Title                                    : / 2.0 Ch / 192 kbps / БЗ / NLO
Language                                 : Ukrainian
Service kind                             : Complete Main
Default                                  : No
Forced                                   : No

Audio #4
ID                                       : 5
Format                                   :
Format/Info                              : Digital Theater Systems
Codec ID                                 : A_DTS
Duration                                 : 1 h 49 min
Bit rate mode                            : Constant
Bit rate                                 : 1 509 kb/s
Channel(s)                               : 6 channels
Channel layout                           : C L R Ls Rs LFE
Sampling rate                            : 48.0 kHz
Frame rate                               : 93.750 FPS (512 SPF)
Bit depth                                : 24 bits
Compression mode                         : Lossy
Stream size                              : 1.15 GiB (14%)
Title                                    : / 5.1 Ch / 1509 kbps / Original
Language                                 : English
Default                                  : No
Forced                                   : No

Text #1
ID                                       : 6
Format                                   : UTF-8
Codec ID                                 : S_TEXT/UTF8
Codec ID/Info                            : UTF-8 Plain Text
Duration                                 : 1 h 48 min
Bit rate                                 : 131 b/s
Count of elements                        : 1727
Stream size                              : 104 KiB (0%)
Title                                    : Full
Language                                 : Ukrainian
Default                                  : Yes
Forced                                   : No

Text #2
ID                                       : 7
Format                                   : UTF-8
Codec ID                                 : S_TEXT/UTF8
Codec ID/Info                            : UTF-8 Plain Text
Duration                                 : 1 h 42 min
Bit rate                                 : 84 b/s
Count of elements                        : 1749
Stream size                              : 64.1 KiB (0%)
Title                                    : Full
Language                                 : English
Default                                  : No
Forced                                   : No

Text #3
ID                                       : 8
Format                                   : UTF-8
Codec ID                                 : S_TEXT/UTF8
Codec ID/Info                            : UTF-8 Plain Text
Duration                                 : 1 h 43 min
Bit rate                                 : 87 b/s
Count of elements                        : 1863
Stream size                              : 66.6 KiB (0%)
Title                                    : SDH
Language                                 : English
Default                                  : No
Forced                                   : No

Text #4
ID                                       : 9
Format                                   : UTF-8
Codec ID                                 : S_TEXT/UTF8
Codec ID/Info                            : UTF-8 Plain Text
Duration                                 : 1 h 43 min
Bit rate                                 : 96 b/s
Count of elements                        : 1863
Stream size                              : 73.4 KiB (0%)
Title                                    : SDH-Colored
Language                                 : English
Default                                  : No
Forced                                   : No

Menu
00:00:00.000                             : en:Chapter 1
00:05:38.506                             : en:Chapter 2
00:10:33.217                             : en:Chapter 3
00:15:34.978                             : en:Chapter 4
00:19:56.906                             : en:Chapter 5
00:25:24.192                             : en:Chapter 6
00:30:07.392                             : en:Chapter 7
00:36:09.963                             : en:Chapter 8
00:42:40.479                             : en:Chapter 9
00:46:17.446                             : en:Chapter 10
00:50:20.231                             : en:Chapter 11
00:57:20.943                             : en:Chapter 12
01:02:29.419                             : en:Chapter 13
01:06:30.952                             : en:Chapter 14
01:12:17.340                             : en:Chapter 15
01:18:37.220                             : en:Chapter 16
01:23:51.410                             : en:Chapter 17
01:26:46.001                             : en:Chapter 18
01:35:16.971                             : en:Chapter 19
01:42:20.436                             : en:Chapter 20
Світлини




Джерело: &
Особиста оцінка: 10 - без зайвих вагань рекомендую всім!


Авторський реліз (завантажувати можна без реєстрації)
 Трекер:    Зареєстрований   

Завантажити / скачати фільм українською



відео для новачків



 Зареєстрований:   2020-04-05 19:17
 Розмір:   8.32 GB 
 Оцінка фільму:   8/10 (Голосів: 13)
   
Інші релізи
   Кінець Світу / The World's End (2013) 1080p 3xUkr/Eng | Sub Ukr/Eng staf777  2 / 0   16.62 GB   2019-02-16 17:07 
   Кінець Світу / The World's End (2013) AVC 3xUkr/Eng| sub Ukr/Eng Sando7  2 / 0   2.45 GB   2019-02-15 10:51 
   Кінець Світу / The World's End (2013) Remux Ukr/Eng | Sub Ukr/Eng Omikron  0 / 0   28.52 GB   2014-04-14 02:07 
   Кінець світу / The World's End (2013) 720р Ukr/Eng | Sub Ukr/Eng kino.  0 / 0   7.09 GB   2014-04-08 19:08 
   Кінець Світу / The World's End (2013) AVC patriot2305  1 / 0   2.4 GB   2014-04-08 18:58 
   Кінець Світу / The World's End (2013) Omikron  4 / 0   1.45 GB   2014-04-07 21:49 
   Кінець Світу / The World's End (2013) 720p Ukr/Eng | Sub Ukr/Eng Omikron  5 / 0   3.48 GB   2014-04-07 21:49 
   Кінець світу / The World's End (2013) Eng | sub Ukr patriot2305  0 / 0   1.42 GB   2014-01-18 11:47 
0mage0 
VIP


З нами з: 06.10.15
Востаннє: 30.09.20
Повідомлень: 696

2018-11-18 16:53  
Фільм на любителя, мені сподобався Happy
Тільки за кого себе має цей Гарі король (в кінці фільму) я так і не зрозумів Happy

hetzendorf 
Попереджень: 2
Попереджень: 2 


З нами з: 23.07.15
Востаннє: 01.10.20
Повідомлень: 2878

2020-04-04 23:55  
Рідкісна, цілковита маячня!
2/10

Anonymous 







2020-04-05 19:17  
Додано доріжку 
Ваш часовий пояс: GMT + 2 Години

Нова тема   Відповісти