Засновник / The Founder (2016) 1080p H.265 Ukr/Eng | Sub Eng

Нові коментарі

Нова тема   Відповісти
Автор Повідомлення
-Star-Lord- 
VIP


З нами з: 09.08.18
Востаннє: 12.12.18
Повідомлень: 334

2018-09-11 11:05  
Засновник / The Founder (2016) 1080p H.265 Ukr/Eng | Sub Eng

Засновник / The Founder (2016) 1080p H.265 Ukr/Eng | Sub Eng


Жанр: біографічний
Країна: США



Кінокомпанія: FilmNation Entertainment, Weinstein Company, The, Faliro House Productions
Режисер: Джон Лі Генкок
Актори: Майкл Кітон, Лора Дерн, Нік Офферман, Джон Керролл Лінч, Патрік Вілсон

Сюжет:
Розповідь про Рея Крока, торгового агента, що завдяки своїй амбітності та наполегливості перетворив закусочну двох братів на найвідомішу мережу закладів швидкого обслуговування у світі - McDonald's.


Українською мовою озвучено студією Омікрон на замовлення HURTOM.COM


Тривалість: 01:55:34
Якість:
Відео:
кодек: H.265 (HEVC)
розмір кадру: 1920 х 800
бітрейт: 5 892 кб/с
бітова глибина: 10 біт
Увага! Перед завантаженням переконайтесь, що ваш пристрій відтворення (та/або ПЗ) підтримує H.265 (HEVC)

Аудіо # 1:
мова: українська
переклад: багатоголосий закадровий | Студія Омікрон
кодек: 5.1
бітрейт: 1 509 кб/с

Аудіо # 2:
мова: англійська
переклад: оригінал
кодек: 5.1
бітрейт: 640 кб/с

Субтитри # 1-2:
мова: англійська (SDH, Full)
тип: програмні (м'які)
формат: *.srt


Info
Код:
General
Unique ID                                : 148471524422255200283944262822598583724 (0x6FB293527C0ADD6BD99362738B24A5AC)
Complete name                            : F:\Video\The Founder (2016) 1080p H.265 [UKR_ENG].
Format                                   :
Format version                           : Version 4 / Version 2
File size                                : 6.49 GiB
Duration                                 : 1 h 55 min
Overall bit rate                         : 8 040 kb/s
Movie name                               : The Founder (2016)
Encoded date                             : UTC 2018-09-15 10:16:43
Writing application                      : v20.0.0 ('I Am The Sun') 32-bit
Writing library                          : libebml v1.3.5 + v1.4.8
Cover                                    : Yes
Attachments                              : Cover.jpg

Video
ID                                       : 1
Format                                   : HEVC
Format/Info                              : High Efficiency Video Coding
Format profile                           : Main [email protected]@Main
Codec ID                                 : V_MPEGH/ISO/HEVC
Duration                                 : 1 h 55 min
Bit rate                                 : 5 892 kb/s
Width                                    : 1 920 pixels
Height                                   : 800 pixels
Display aspect ratio                     : 2.40:1
Frame rate mode                          : Constant
Frame rate                               : 23.976 (24000/1001) FPS
Color space                              : YUV
Chroma subsampling                       : 4:2:0
Bit depth                                : 10 bits
Bits/(Pixel*Frame)                       : 0.160
Stream size                              : 4.76 GiB (73%)
Default                                  : Yes
Forced                                   : No
Color range                              : Limited
Color primaries                          : BT.709
Transfer characteristics                 : BT.709
Matrix coefficients                      : BT.709

Audio #1
ID                                       : 2
Format                                   :
Format/Info                              : Digital Theater Systems
Codec ID                                 : A_DTS
Duration                                 : 1 h 55 min
Bit rate mode                            : Constant
Bit rate                                 : 1 509 kb/s
Channel(s)                               : 6 channels
Channel positions                        : Front: L C R, Side: L R, LFE
Sampling rate                            : 48.0 kHz
Frame rate                               : 93.750 FPS (512 SPF)
Bit depth                                : 24 bits
Compression mode                         : Lossy
Stream size                              : 1.22 GiB (19%)
Title                                    : MVO Omikron studio for hurtom.com
Language                                 : Ukrainian
Default                                  : Yes
Forced                                   : No

Audio #2
ID                                       : 3
Format                                   : AC-3
Format/Info                              : Audio Coding 3
Codec ID                                 : A_AC3
Duration                                 : 1 h 55 min
Bit rate mode                            : Constant
Bit rate                                 : 640 kb/s
Channel(s)                               : 6 channels
Channel positions                        : Front: L C R, Side: L R, LFE
Sampling rate                            : 48.0 kHz
Frame rate                               : 31.250 FPS (1536 SPF)
Bit depth                                : 16 bits
Compression mode                         : Lossy
Stream size                              : 528 MiB (8%)
Title                                    : Original
Language                                 : English
Service kind                             : Complete Main
Default                                  : No
Forced                                   : No

Text #1
ID                                       : 4
Format                                   : UTF-8
Codec ID                                 : S_TEXT/UTF8
Codec ID/Info                            : UTF-8 Plain Text
Duration                                 : 1 h 50 min
Bit rate                                 : 79 b/s
Count of elements                        : 1905
Stream size                              : 63.9 KiB (0%)
Title                                    : SDH
Language                                 : English
Default                                  : No
Forced                                   : No

Text #2
ID                                       : 5
Format                                   : UTF-8
Codec ID                                 : S_TEXT/UTF8
Codec ID/Info                            : UTF-8 Plain Text
Duration                                 : 1 h 49 min
Bit rate                                 : 77 b/s
Count of elements                        : 1849
Stream size                              : 62.4 KiB (0%)
Language                                 : English
Default                                  : No
Forced                                   : No

Menu
00:00:00.000                             : en:Chapter 1
00:06:35.937                             : en:Chapter 2
00:13:47.785                             : en:Chapter 3
00:25:07.714                             : en:Chapter 4
00:29:34.189                             : en:Chapter 5
00:33:48.276                             : en:Chapter 6
00:40:16.997                             : en:Chapter 7
00:45:24.096                             : en:Chapter 8
00:50:19.182                             : en:Chapter 9
00:54:14.251                             : en:Chapter 10
00:59:37.615                             : en:Chapter 11
01:06:12.259                             : en:Chapter 12
01:10:26.222                             : en:Chapter 13
01:16:04.810                             : en:Chapter 14
01:21:37.225                             : en:Chapter 15
01:25:05.850                             : en:Chapter 16
01:29:37.622                             : en:Chapter 17
01:37:26.006                             : en:Chapter 18
01:43:09.975                             : en:Chapter 19
01:49:14.965                             : en:Chapter 20
01:55:18.369                             : en:Chapter 21
Скріншоти




Джерело:
Особиста оцінка: 10 - без зайвих вагань рекомендую всім!


Авторський реліз (завантажувати можна без реєстрації)
 Трекер:    Зареєстрований   

Завантажити / скачати фільм українською



відео для новачків



 Зареєстрований:   2018-09-15 12:33
 Розмір:   6.49 GB 
 Оцінка фільму:   9.4/10 (Голосів: 10)
   
Інші релізи
   Засновник / The Founder (2016) Remux Ukr/Eng | sub Eng Omikron  1 / 0   27.87 GB   2017-07-10 13:16 
   Засновник / The Founder (2016) 1080p Ukr/Eng | sub Eng Omikron  15 / 0   13.93 GB   2017-07-10 13:16 
   Засновник / The Founder (2016) 720p Ukr/Eng | sub Eng Omikron  31 / 0   2.04 GB   2017-07-10 13:15 
   Засновник / The Founder (2016) AVC Omikron  23 / 0   684 MB   2017-07-10 13:15 
Jenuk 
Новенький


З нами з: 02.04.11
Востаннє: 12.12.18
Повідомлень: 1

2018-09-12 01:29  
є помилка в описі "наполгливості"
-Star-Lord- 
VIP


З нами з: 09.08.18
Востаннє: 12.12.18
Повідомлень: 334

2018-09-12 10:45  
Jenuk
Виправив

11FrYkT 
Модератор відео


З нами з: 20.02.11
Востаннє: 11.12.18
Повідомлень: 5259

2018-09-15 11:08  
-Star-Lord- написано:
Delay relative to video                  : 15 s 0 ms

не ставте таких великих затримок

-Star-Lord- 
VIP


З нами з: 09.08.18
Востаннє: 12.12.18
Повідомлень: 334

2018-09-15 11:14  
11FrYkT
По іншому не вмію. Та не проти навчитися! Не підкажете як зробити правильно?

11FrYkT 
Модератор відео


З нами з: 20.02.11
Востаннє: 11.12.18
Повідомлень: 5259

2018-09-15 11:37  
-Star-Lord- написано:

11FrYkT
По іншому не вмію. Та не проти навчитися! Не підкажете як зробити правильно?

ну це не аргумент бо таку затримку половину тб не ковтне
можна програмою делейкат, вона не погіршує якість доріжки

-Star-Lord- 
VIP


З нами з: 09.08.18
Востаннє: 12.12.18
Повідомлень: 334

2018-09-15 12:33  
Синхронізував звук правильно, а не через затримку

Anоnymous 
Попереджень: 2
Попереджень: 2 


З нами з: 25.08.18
Востаннє: 11.12.18
Повідомлень: 294

2018-09-15 14:49  
11FrYkT написано:
можна програмою делейкат, вона не погіршує якість доріжки

eac3to тут не підійде?

-Star-Lord- 
VIP


З нами з: 09.08.18
Востаннє: 12.12.18
Повідомлень: 334

2018-09-15 15:01  
Anоnymous написано:
eac3to тут не підійде?

Ось вона погіршує якість доріжки!

Anоnymous 
Попереджень: 2
Попереджень: 2 


З нами з: 25.08.18
Востаннє: 11.12.18
Повідомлень: 294

2018-09-15 15:12  
-Star-Lord- написано:
Ось вона погіршує якість доріжки

З чого такі висновки?

-Star-Lord- 
VIP


З нами з: 09.08.18
Востаннє: 12.12.18
Повідомлень: 334

2018-09-15 15:52  
Anоnymous
Бо eac3to використовує старий кодек

Anоnymous 
Попереджень: 2
Попереджень: 2 


З нами з: 25.08.18
Востаннє: 11.12.18
Повідомлень: 294

2018-09-15 15:58  
-Star-Lord-
Який із тих кодерів/декодерів які він використовує є старим?

Ваш часовий пояс: GMT + 2 Години

Нова тема   Відповісти