З міркувань совісті / Hacksaw Ridge (2016) 1080p H.265 Ukr/Eng | Sub Eng

Нові коментарі

Нова тема   Відповісти
Автор Повідомлення
-Star-Lord- 
Поважний учасник


З нами з: 09.08.18
Востаннє: 17.10.18
Повідомлень: 197

2018-09-11 11:58  
З міркувань совісті / Hacksaw Ridge (2016) 1080p H.265 Ukr/Eng | Sub Eng

З міркувань совісті / Hacksaw Ridge (2016) 1080p H.265 Ukr/Eng | Sub Eng


Жанр: драма, військовий
Країна: США, Австралія



Кінокомпанія: Cross Creek Pictures, Demarest Media, IM Global
Режисер: Мел Ґібсон
Актори: Ендрю Ґарфілд, Сем Вортінґтон, Тереза Палмер, Люк Брейсі, Вінс Вон, Г’юґо Вівін, Рейчел Ґріффітс

Сюжет:
Медик американської армії часів Другої світової війни Дезмонд Досс, що служив під час Битви за Окінаву, відмовляється вбивати людей і стає першим в історії Америки, хто отримав Медаль за відвагу, не здійснивши жодного пострілу.


Українською мовою озвучено студією Омікрон на замовлення HURTOM.COM


Тривалість: 02:19:19
Якість:
Відео:
кодек: H.265 (HEVC)
розмір кадру: 1920 х 802
бітрейт: 4 911 кб/с
бітова глибина: 10 біт
Увага! Перед завантаженням переконайтесь, що ваш пристрій відтворення (та/або ПЗ) підтримує H.265 (HEVC)

Аудіо # 1:
мова: українська
переклад: багатоголосий закадровий | Студія Омікрон
кодек: 5.1
бітрейт: 1 509 кб/с

Аудіо # 2:
мова: англійська
переклад: оригінал
кодек: 5.1
бітрейт: 640 кб/с

Субтитри # 1-2:
мова: англійська (Full, SDH)
тип: програмні (м'які)
формат: *.srt


Info
Код:
General
Unique ID                                : 237749401065390378635340443443624302280 (0xB2DCDE7BD7D9105B35C850C776A256C8)
Complete name                            : F:\Video\Hacksaw Ridge (2016) 1080p H.265 [UKR_ENG].
Format                                   :
Format version                           : Version 4 / Version 2
File size                                : 6.87 GiB
Duration                                 : 2 h 19 min
Overall bit rate                         : 7 063 kb/s
Movie name                               : Hacksaw Ridge (2016)
Encoded date                             : UTC 2018-09-11 08:37:18
Writing application                      : v20.0.0 ('I Am The Sun') 32-bit
Writing library                          : libebml v1.3.5 + v1.4.8
Cover                                    : Yes
Attachments                              : Cover.jpg

Video
ID                                       : 1
Format                                   : HEVC
Format/Info                              : High Efficiency Video Coding
Format profile                           : Main [email protected]@High
Codec ID                                 : V_MPEGH/ISO/HEVC
Duration                                 : 2 h 19 min
Bit rate                                 : 4 911 kb/s
Width                                    : 1 920 pixels
Height                                   : 802 pixels
Display aspect ratio                     : 2.40:1
Frame rate mode                          : Constant
Frame rate                               : 23.976 (24000/1001) FPS
Color space                              : YUV
Chroma subsampling                       : 4:2:0
Bit depth                                : 10 bits
Bits/(Pixel*Frame)                       : 0.133
Stream size                              : 4.78 GiB (70%)
Writing library                          : x265 2.2+22-20217c8af8ac:[Windows][GCC 6.2.0][64 bit] 10bit
Encoding settings                        : cpuid=1173503 / frame-threads=3 / numa-pools=8 / wpp / no-pmode / no-pme / no-psnr / ssim / log-level=2 / input-csp=1 / input-res=1920x802 / interlace=0 / total-frames=0 / level-idc=41 / high-tier=1 / uhd-bd=0 / ref=6 / no-allow-non-conformance / repeat-headers / annexb / aud / hrd / info / hash=0 / no-temporal-layers / open-gop / min-keyint=23 / keyint=250 / bframes=8 / b-adapt=2 / b-pyramid / bframe-bias=0 / rc-lookahead=60 / lookahead-slices=1 / scenecut=40 / no-intra-refresh / ctu=64 / min-cu-size=8 / no-rect / no-amp / max-tu-size=32 / tu-inter-depth=3 / tu-intra-depth=3 / limit-tu=0 / rdoq-level=1 / signhide / no-tskip / nr-intra=0 / nr-inter=0 / no-constrained-intra / no-strong-intra-smoothing / max-merge=2 / limit-refs=3 / no-limit-modes / me=3 / subme=3 / merange=64 / temporal-mvp / weightp / weightb / no-analyze-src-pics / deblock=-3:-3 / no-sao / no-sao-non-deblock / rd=4 / no-early-skip / no-rskip / no-fast-intra / no-tskip-fast / no-cu-lossless / no-b-intra / rdpenalty=0 / psy-rd=1.60 / psy-rdoq=2.30 / no-rd-refine / analysis-mode=0 / no-lossless / cbqpoffs=0 / crqpoffs=0 / rc=crf / crf=22.0 / qcomp=0.90 / qpstep=6 / stats-write=0 / stats-read=0 / vbv-maxrate=50000 / vbv-bufsize=50000 / vbv-init=0.9 / crf-max=0.0 / crf-min=0.0 / ipratio=1.50 / pbratio=1.00 / aq-mode=1 / aq-strength=0.80 / no-cutree / zone-count=0 / no-strict-cbr / qg-size=32 / no-rc-grain / qpmax=69 / qpmin=0 / sar=1 / overscan=0 / videoformat=5 / range=0 / colorprim=2 / transfer=2 / colormatrix=1 / chromaloc=0 / display-window=0 / max-cll=0,0 / min-luma=0 / max-luma=1023 / log2-max-poc-lsb=8 / vui-timing-info / vui-hrd-info / slices=1 / opt-qp-pps / opt-ref-list-length-pps / no-multi-pass-opt-rps / scenecut-bias=0.05 / no-opt-cu-delta-qp / no-aq-motion
Default                                  : Yes
Forced                                   : Yes
Color range                              : Limited
Matrix coefficients                      : BT.709

Audio #1
ID                                       : 2
Format                                   :
Format/Info                              : Digital Theater Systems
Codec ID                                 : A_DTS
Duration                                 : 2 h 19 min
Bit rate mode                            : Constant
Bit rate                                 : 1 509 kb/s
Channel(s)                               : 6 channels
Channel positions                        : Front: L C R, Side: L R, LFE
Sampling rate                            : 48.0 kHz
Frame rate                               : 93.750 FPS (512 SPF)
Bit depth                                : 24 bits
Compression mode                         : Lossy
Stream size                              : 1.47 GiB (21%)
Title                                    : MVO Omikron studio for Hurtom.com
Language                                 : Ukrainian
Default                                  : Yes
Forced                                   : No

Audio #2
ID                                       : 3
Format                                   : AC-3
Format/Info                              : Audio Coding 3
Codec ID                                 : A_AC3
Duration                                 : 2 h 19 min
Bit rate mode                            : Constant
Bit rate                                 : 640 kb/s
Channel(s)                               : 6 channels
Channel positions                        : Front: L C R, Side: L R, LFE
Sampling rate                            : 48.0 kHz
Frame rate                               : 31.250 FPS (1536 SPF)
Bit depth                                : 16 bits
Compression mode                         : Lossy
Stream size                              : 638 MiB (9%)
Title                                    : Original
Language                                 : English
Service kind                             : Complete Main
Default                                  : No
Forced                                   : No

Text #1
ID                                       : 4
Format                                   : UTF-8
Codec ID                                 : S_TEXT/UTF8
Codec ID/Info                            : UTF-8 Plain Text
Duration                                 : 2 h 8 min
Bit rate                                 : 48 b/s
Count of elements                        : 1342
Stream size                              : 46.1 KiB (0%)
Title                                    : English
Language                                 : English
Default                                  : No
Forced                                   : No

Text #2
ID                                       : 5
Format                                   : UTF-8
Codec ID                                 : S_TEXT/UTF8
Codec ID/Info                            : UTF-8 Plain Text
Duration                                 : 2 h 9 min
Bit rate                                 : 55 b/s
Count of elements                        : 1655
Stream size                              : 53.2 KiB (0%)
Title                                    : English SDH
Language                                 : English
Default                                  : No
Forced                                   : No

Menu
00:00:00.000                             : en:00:00:00.000
00:09:18.766                             : en:00:09:18.766
00:18:41.996                             : en:00:18:41.996
00:26:34.510                             : en:00:26:34.510
00:33:00.562                             : en:00:33:00.562
00:40:04.152                             : en:00:40:04.152
00:50:07.212                             : en:00:50:07.212
00:57:01.543                             : en:00:57:01.543
01:04:21.649                             : en:01:04:21.649
01:17:50.207                             : en:01:17:50.207
01:23:58.700                             : en:01:23:58.700
01:31:21.726                             : en:01:31:21.726
01:39:02.812                             : en:01:39:02.812
01:46:07.569                             : en:01:46:07.569
01:59:48.306                             : en:01:59:48.306
02:07:13.292                             : en:02:07:13.292
Скріншоти




Джерело:
Особиста оцінка: 0 - не дивився


Авторський реліз (завантажувати можна без реєстрації)
 Трекер:    Зареєстрований   

Завантажити / скачати фільм українською



відео для новачків



 Зареєстрований:   2018-09-11 11:58
 Розмір:   6.87 GB 
 Оцінка фільму:   9.9/10 (Голосів: 9)
   
Інші релізи
0mage0 
VIP


З нами з: 06.10.15
Востаннє: 16.10.18
Повідомлень: 366

2018-10-13 09:02  
Гарний фільм, чувак дійсно герой.
Не можу тільки второпати, чого йому ніхто не допоміг, він цілу ніч бігав сам.

Ваш часовий пояс: GMT + 2 Години

Нова тема   Відповісти