Світ Юрського періоду 2 / Jurassic World: Fallen Kingdom (2018) Remux 1080p Ukr/Eng | Sub Eng

Нові коментарі

Нова тема   Відповісти
Автор Повідомлення
staf777 
Попереджень: 1
Попереджень: 1 


З нами з: 16.11.16
Востаннє: 18.10.18
Повідомлень: 1636

2018-09-11 10:27  
Світ Юрського періоду 2 / Jurassic World: Fallen Kingdom (2018) Remux 1080p Ukr/Eng | Sub Eng


Світ Юрського періоду 2 / Jurassic World: Fallen Kingdom (2018) Remux 1080p Ukr/Eng | Sub Eng


Альтернативний постер:


«Життя знайде свій шлях»



Жанр: бойовик, фантастика, пригодницький
Країна: США, Іспанія



Кінокомпанія: Universal Pictures, Apaches Entertainment, Amblin Entertainment, Legendary Picture
Режисер: Хуан Антоніо Байона / J.A. Bayona
Актори: Кріс Пратт / Chris Pratt, Брайс Даллас Говард / Bryce Dallas Howard, Тед Левайн / Ted Levine, Джефф Голдблюм / Jeff Goldblum, Тобі Джонс / Toby Jones, Джеймс Кромвелл / James Cromwell, Б.Д. Вонг / BD Wong, Рейф Сполл / Rafe Spall, Даніелла Пінеда / Daniella Pineda, Джастіс Сміт / Justice Smith та інші

Сюжет:
Культова сага продовжується! Залишившись на уламках унікального парку розваг, динозаври відчули себе господарями, немов у доісторичні часи. Але раптове виверження древнього вулкана на зловісному острові Нублар ставить під загрозу існування не лише ящерів, а й усієї планети. Люди, які прибувають на острів, щоб взяти ситуацію під контроль, опиняються у смертельній пастці між потоками розжареної лави та розлюченими гігантськими динозаврами.


Тривалість: 02:08:17
Якість: Remux 1080p

Відео:
кодек:
розмір кадру: 1920x1080
бітрейт: 23,9 Mб/с

Аудіо #1:
мова: українська
переклад: професійний дубльований | студія LeDoyen
кодек: 2.0
бітрейт: 192 кб/с

Аудіо # 2:
мова: англійська
переклад: оригінал
кодек: -HD MA 7.1
бітрейт: 4231 кб/с

Субтитри:
мова: англійська
тип: програмні (м'які)
формат: *.srt
Info
Код:

General
Unique ID                   : 81827988682994069895470145931233172902 (0x3D8F7F53991D4044C3C2D601317B9DA6)
Complete name               : S:\Фільми в HD\Фантастика\Jurassic World Fallen Kingdom (2018) Remux 1080p [UKR_ENG] [Hurtom].
Format                      :
Format version              : Version 4 / Version 2
File size                   : 25.4 GiB
Duration                    : 2 h 8 min
Overall bit rate mode       : Variable
Overall bit rate            : 28.3 Mb/s
Movie name                  : Jurassic World: Fallen Kingdom (2018) Remux 1080p [UKR_ENG] [Hurtom]
Encoded date                : UTC 2018-09-11 13:49:49
Writing application         : v24.0.0 ('Beyond The Pale') 64-bit
Writing library             : libebml v1.3.6 + v1.4.9
Cover                       : Yes
Attachments                 : cover.jpg

Video
ID                          : 1
Format                      : AVC
Format/Info                 : Advanced Video Codec
Format profile              : [email protected]
Format settings             : CABAC / 4 Ref Frames
Format settings, CABAC      : Yes
Format settings, ReFrames   : 4 frames
Codec ID                    : V_MPEG4/ISO/AVC
Duration                    : 2 h 8 min
Bit rate mode               : Variable
Bit rate                    : 23.9 Mb/s
Maximum bit rate            : 28.0 Mb/s
Width                       : 1 920 pixels
Height                      : 1 080 pixels
Display aspect ratio        : 16:9
Frame rate mode             : Constant
Frame rate                  : 23.976 (24000/1001) FPS
Color space                 : YUV
Chroma subsampling          : 4:2:0
Bit depth                   : 8 bits
Scan type                   : Progressive
Bits/(Pixel*Frame)          : 0.481
Stream size                 : 21.4 GiB (84%)
Language                    : English
Default                     : Yes
Forced                      : No

Audio #1
ID                          : 2
Format                      : AC-3
Format/Info                 : Audio Coding 3
Codec ID                    : A_AC3
Duration                    : 2 h 8 min
Bit rate mode               : Constant
Bit rate                    : 192 kb/s
Channel(s)                  : 2 channels
Channel positions           : Front: L R
Sampling rate               : 48.0 kHz
Frame rate                  : 31.250 FPS (1536 SPF)
Bit depth                   : 16 bits
Compression mode            : Lossy
Stream size                 : 176 MiB (1%)
Title                       : | студія LeDoyen
Language                    : Ukrainian
Service kind                : Complete Main
Default                     : Yes
Forced                      : Yes

Audio #2
ID                          : 3
Format                      :
Format/Info                 : Digital Theater Systems
Format profile              : X / MA / Core
Codec ID                    : A_DTS
Duration                    : 2 h 8 min
Bit rate mode               : Variable / Variable / Constant
Bit rate                    : 4 231 kb/s / 4 231 kb/s / 1 509 kb/s
Channel(s)                  : Object Based / 8 channels / 6 channels
Channel positions           : Object Based / Front: L C R, Side: L R, Back: L R, LFE / Front: L C R, Side: L R, LFE
Sampling rate               :  / 48.0 kHz / 48.0 kHz
Frame rate                  : 93.750 FPS (512 SPF)
Bit depth                   :  / 24 bits / 24 bits
Compression mode            :  / Lossless / Lossy
Stream size                 : 3.79 GiB (15%)
Language                    : English
Default                     : No
Forced                      : No

Text
ID                          : 4
Format                      : UTF-8
Codec ID                    : S_TEXT/UTF8
Codec ID/Info               : UTF-8 Plain Text
Duration                    : 2 h 7 min
Bit rate                    : 48 b/s
Count of elements           : 1771
Stream size                 : 45.4 KiB (0%)
Language                    : English
Default                     : No
Forced                      : No

Menu
00:00:00.000                : en:Chapter 1
00:07:13.224                : en:Chapter 2
00:12:01.554                : en:Chapter 3
00:17:17.745                : en:Chapter 4
00:21:17.192                : en:Chapter 5
00:28:49.811                : en:Chapter 6
00:35:04.685                : en:Chapter 7
00:40:51.574                : en:Chapter 8
00:46:32.498                : en:Chapter 9
00:52:04.996                : en:Chapter 10
01:00:59.197                : en:Chapter 11
01:06:50.256                : en:Chapter 12
01:11:07.638                : en:Chapter 13
01:17:21.094                : en:Chapter 14
01:26:55.210                : en:Chapter 15
01:33:01.492                : en:Chapter 16
01:42:55.878                : en:Chapter 17
01:50:01.553                : en:Chapter 18
01:54:56.222                : en:Chapter 19
01:58:37.985                : en:Chapter 20



Підтримати купівлю інших фільмів можна тут.

Подяка пану Sando7 за синхронізацію.
Дякую пану 11FrYkT за допомогу в створені реліза
Джерело:
Особиста оцінка: 0 - не дивився


Золотий реліз (завантажене не впливає на рейтинг)
 Трекер:    Зареєстрований   

Завантажити / скачати фільм українською



відео для новачків



 Зареєстрований:   2018-09-11 17:49
 Розмір:   25.38 GB 
 Оцінка фільму:   7.9/10 (Голосів: 14)
   
staf777 
Попереджень: 1
Попереджень: 1 


З нами з: 16.11.16
Востаннє: 18.10.18
Повідомлень: 1636

2018-09-11 10:28  
Ремукс вечором
bot 
робот


З нами з: 30.09.07
Востаннє: 26.05.05
Повідомлень: 19961

2018-09-11 17:49  
Тему перенесено з Анонси релізів до форуму Фільми в HD


staf777

service 
Новенький


З нами з: 02.07.18
Востаннє: 18.10.18
Повідомлень: 3

2018-09-11 21:26  
Дякую за реліз.
Ваш часовий пояс: GMT + 2 Години

Нова тема   Відповісти