Теорія великого вибуху (Сезон 3) / The Big Bang Theory (Season 3) (2009-2010) 720р 2xUkr/Eng | Ukr/Eng Sub

Нові коментарі

Нова тема   Відповісти
Останній раз роздавалося wwildlion (2019-01-16)
Автор Повідомлення
Anonymous 







2018-09-10 20:29  
Теорія великого вибуху (Сезон 3) / The Big Bang Theory (Season 3) (2009-2010) 720р 2xUkr/Eng | Ukr/Eng Sub


Альтернативний постер



Жанр: комедія
Країна: США



Кінокомпанія: Chuck Lorre Productions, Warner Bros. Television
Автори ідеї: Чак Лорі / Chuck Lorre, Біл Праді / Bill Prady
Актори: Джоні Галескі / Johnny Galecki, Джим Парсонс / Jim Parsons, Кейлі Куоко / Kaley Cuoco, Саймон Гелберг / Simon Helberg, Кунал Наяр / Kunal Nayyar, та інші.

Сюжет:
Двоє блискучих фізиків, Леонард та Шелдон, розумники, які знаються на тому, як "працює усесвіт". Але їх геніальність ані трішечки не допомагає їм у спілкуванні з людьми, особливо жінками. Все змінюється, коли по сусідству поселяється красуня Пенні.
А ще у хлопців є два дивакуватих друга: Воловіц, який полюбляє використовувати фрази різними мовами і Раджеш Кутрапалі, який втрачає дар мови при появі жінки.


Тривалість: 1 серія: 20 хвилин (цілком серій: 23)
Перелік серій
The Big Bang Theory. Season 3, Episode 1. The Electric Can Opener Fluctuation
The Big Bang Theory. Season 3, Episode 2. The Jiminy Conjecture
The Big Bang Theory. Season 3, Episode 3. The Gothowitz Deviation
The Big Bang Theory. Season 3, Episode 4. The Pirate Solution
The Big Bang Theory. Season 3, Episode 5. The Creepy Candy Coating Corollary
The Big Bang Theory. Season 3, Episode 6. The Cornhusker Vortex
The Big Bang Theory. Season 3, Episode 7. The Guitarist Amplification
The Big Bang Theory. Season 3, Episode 8. The Adhesive Duck Deficiency
The Big Bang Theory. Season 3, Episode 9. The Vengeance Formulation
The Big Bang Theory. Season 3, Episode 10. The Gorilla Experiment
The Big Bang Theory. Season 3, Episode 11. The Maternal Congruence
The Big Bang Theory. Season 3, Episode 12. The Psychic Vortex
The Big Bang Theory. Season 3, Episode 13. The Bozeman Reaction
The Big Bang Theory. Season 3, Episode 14. The Einstein Approximation
The Big Bang Theory. Season 3, Episode 15. The Large Hadron Collision
The Big Bang Theory. Season 3, Episode 16. The Excelsior Acquisition
The Big Bang Theory. Season 3, Episode 17. The Precious Fragmentation
The Big Bang Theory. Season 3, Episode 18. The Pants Alternative
The Big Bang Theory. Season 3, Episode 19. The Wheaton Recurrence
The Big Bang Theory. Season 3, Episode 20. The Spaghetti Catalyst
The Big Bang Theory. Season 3, Episode 21. The Plimpton Stimulation
The Big Bang Theory. Season 3, Episode 22. The Staircase Implementation
The Big Bang Theory. Season 3, Episode 23. The Lunar Excitation
Якість: 720р
Відео:
кодек:
розмір кадру: 1280 х 720
бітрейт: 6600 кб/с

Аудіо # 1:
мова: українська
переклад: багатоголосий закадровий | Paramount comedy
кодек: 2.0
бітрейт: 192 кб/с

Аудіо # 2:
мова: українська
переклад: багатоголосий закадровий | MTV
кодек: 2.0
бітрейт: 192 кб/с

Аудіо # 3:
мова: англійська
переклад: оригінал
кодек: 5.1
бітрейт: 640 кб/с

Субтитри:
мова: українська (1-6, 17-18, 20, 23 серії)
тип: програмні (м'які)
формат: *.srt

Субтитри:
мова: англійська
тип: програмні (м'які)
формат: *.srt
Info
General
Unique ID : 212317280075363868484404463702971471297 (0x9FBAD21C11AC38FBB48B63CADEB755C1)
Complete name : D:\The.Big.Bang.Theory.S03.720p.BluRay.DD5.1.-CtrlHD\The.Big.Bang.Theory.S03E01.720p.BluRay.DD5.1.-CtrlHD.
Format :
Format version : Version 2
File size : 1.15 GiB
Duration : 21 min 35 s
Overall bit rate : 7 624 kb/s
Encoded date : UTC 2018-09-11 16:02:17
Writing application : v5.6.0 ('Kenya Kane') built on May 27 2012 16:44:04
Writing library : libebml v1.2.3 + v1.3.0

Video
ID : 1
Format : AVC
Format/Info : Advanced Video Codec
Format profile : [email protected]
Format settings, CABAC : Yes
Format settings, RefFrames : 9 frames
Codec ID : V_MPEG4/ISO/AVC
Duration : 21 min 35 s
Bit rate : 6 604 kb/s
Width : 1 280 pixels
Height : 720 pixels
Display aspect ratio : 16:9
Frame rate mode : Constant
Frame rate : 23.976 FPS
Color space : YUV
Chroma subsampling : 4:2:0
Bit depth : 8 bits
Scan type : Progressive
Bits/(Pixel*Frame) : 0.299
Stream size : 996 MiB (85%)
Title : The Big Bang Theory S03 E01 The Electric Can Opener Fluctuation
Writing library : core 80 r1376M 3feaec2
Encoding settings : cabac=1 / ref=9 / deblock=1:-3:-3 / analyse=0x3:0x133 / me=umh / subme=10 / psy=1 / psy_rd=1.0:0.3 / mixed_ref=1 / me_range=24 / chroma_me=1 / trellis=2 / 8x8dct=1 / cqm=0 / deadzone=21,11 / fast_pskip=0 / chroma_qp_offset=-4 / threads=12 / sliced_threads=0 / nr=0 / decimate=0 / mbaff=0 / constrained_intra=0 / bframes=6 / b_pyramid=0 / b_adapt=2 / b_bias=0 / direct=3 / wpredb=1 / wpredp=2 / keyint=240 / keyint_min=24 / scenecut=40 / rc_lookahead=60 / rc=2pass / mbtree=1 / bitrate=6604 / ratetol=1.0 / qcomp=0.80 / qpmin=10 / qpmax=51 / qpstep=4 / cplxblur=20.0 / qblur=0.5 / vbv_maxrate=40000 / vbv_bufsize=30000 / ip_ratio=1.20 / aq=1:0.50
Language : English
Default : Yes
Forced : No

Audio #1
ID : 2
Format : AC-3
Format/Info : Audio Coding 3
Format settings, Endianness : Big
Codec ID : A_AC3
Duration : 21 min 35 s
Bit rate mode : Constant
Bit rate : 192 kb/s
Channel(s) : 2 channels
Channel positions : Front: L R
Sampling rate : 48.0 kHz
Frame rate : 31.250 FPS (1536 SPF)
Bit depth : 16 bits
Compression mode : Lossy
Stream size : 29.6 MiB (3%)
Title : Paramount Comedy
Language : Ukrainian
Service kind : Complete Main
Default : Yes
Forced : Yes

Audio #2
ID : 3
Format : AC-3
Format/Info : Audio Coding 3
Format settings, Endianness : Big
Codec ID : A_AC3
Duration : 21 min 35 s
Bit rate mode : Constant
Bit rate : 192 kb/s
Channel(s) : 2 channels
Channel positions : Front: L R
Sampling rate : 48.0 kHz
Frame rate : 31.250 FPS (1536 SPF)
Bit depth : 16 bits
Compression mode : Lossy
Stream size : 29.6 MiB (3%)
Title : MTV
Language : Ukrainian
Service kind : Complete Main
Default : No
Forced : No

Audio #3
ID : 4
Format : AC-3
Format/Info : Audio Coding 3
Format settings, Endianness : Big
Codec ID : A_AC3
Duration : 21 min 35 s
Bit rate mode : Constant
Bit rate : 640 kb/s
Channel(s) : 6 channels
Channel positions : Front: L C R, Side: L R, LFE
Sampling rate : 48.0 kHz
Frame rate : 31.250 FPS (1536 SPF)
Bit depth : 16 bits
Compression mode : Lossy
Stream size : 98.8 MiB (8%)
Title : 5.1 @ 640 kbps
Language : English
Service kind : Complete Main
Default : No
Forced : No

Text #1
ID : 5
Format : UTF-8
Codec ID : S_TEXT/UTF8
Codec ID/Info : UTF-8 Plain Text
Language : Ukrainian
Default : No
Forced : No

Text #2
ID : 6
Format : UTF-8
Codec ID : S_TEXT/UTF8
Codec ID/Info : UTF-8 Plain Text
Language : English
Default : No
Forced : No
Скріншоти





Джерело:
Подяки: За зведені доріжки пану з цієї теми - https://toloka.to/t42722
Особиста оцінка: 9 - давно не бачив настільки якісне кіно



Бронзовий реліз (на рейтинг впливає 75% завантаженого)
 Трекер:    Зареєстрований   

Завантажити / скачати серіал українською



відео для новачків



 Зареєстрований:   2018-09-15 10:18
 Розмір:   26.33 GB 
 Оцінка серіалу:   9.8/10 (Голосів: 4)
   
leicheman 
Відео Гуртом - фільмокрай
Відео Гуртом - фільмокрай


З нами з: 03.07.14
Востаннє: 21.09.19
Повідомлень: 3963

2018-09-12 19:42  
Тримайте ще один постер
постер

Anonymous 







2018-09-12 21:15  
leicheman
Дякую.

Anonymous 







2018-09-13 15:39  
Таке запитання. Чи є хтось, хто хотів би допомогти зробити(перекласти чи набрати з озвучення) українські субтитри до решти серій?
Electroz 
Відео Гуртом - підтримка та поширення
Відео Гуртом - підтримка та поширення


З нами з: 18.09.14
Востаннє: 21.09.19
Повідомлень: 3583

2018-09-13 15:46  
Петров Микола
Для чого, якщо наявне озвучення?

Anonymous 







2018-09-13 16:53  
Electroz написано:
Для чого, якщо наявне озвучення?

Є багато любителів дивитися в оригіналі + субтитри(бо не всі досконало володіють англійською), як на мене, то Теорію варто дивитися саме в оригіналі, тож хотілося б щоб у людей була можливість дивитися і з українськими субтитрами.

bot 
робот


З нами з: 30.09.07
Востаннє: 26.05.05
Повідомлень: 22109

2018-09-15 10:17  
Тему перенесено з Анонси релізів до форуму Серіали в HD


Петров Микола

Ваш часовий пояс: GMT + 2 Години

Нова тема   Відповісти