Татусі / The ComDads / Les compères (1983) 1080p 2xUkr/Fra | Sub Fra/Eng

Нові коментарі

Нова тема   Відповісти
Автор Повідомлення
staf777 
Попереджень: 1
Попереджень: 1 


З нами з: 16.11.16
Востаннє: 13.12.18
Повідомлень: 1909

2018-09-10 16:17  
Татусі / The ComDads / Les compères (1983) 1080p 2xUkr/Fra | Sub Fra/Eng



Альтернативний постер


Жанр: комедія, кримінальний
Країна: Франція



Кінокомпанія: DD Productions, EFVE, Fideline Films
Режисер: Франсіс Вебер / Francis Veber
Актори: П’єр Рішар / Pierre Richard, Жерар Депард’є / Gerard Depardieu, Анні Дюпре / Anny Duperey, Мішель Омонт / Michel Aumont, Стефан Бьєррі / Stéphane Bierry, Жан-Жак Шаффе / Jean-Jacques Scheffer, Філіп Хорсанд / Philippe Khorsand, Ролан Бланш / Roland Blanche, Жак Франц / Jacques Frantz

Сюжет:
У Христини Мартен була дуже бурхлива молодість. Коли з дому втікає її сімнадцятирічний син Трістан, на його пошуки кидаються відразу двоє імовірних батьків. Повернути підлітка до батьківського дому намагаються вчитель Франсуа Піньон та журналіст Жан Люка.

Але, як з'ясувалося, сам Трістан не готовий до подвійної порції батьківської опіки. Він всіляко намагається позбутися погоні. Непокірного підлітка все ж таки доправляють до Крістіни, під конвоєм відразу двох татусів. Але в цей момент з'ясовується, що справжнім батьком Трістана є Поль - ще одне захоплення легковажної мадемуазель Мартен.


Рейтинг MPAA: PG - рекомендується присутність батьків
Вікова категорія: 12+

Тривалість: 01:30:59
Якість: 1080p
Відео:
кодек:
розмір кадру: 1804x1080
бітрейт: 9700 кбіт/с

Аудіо # 1:
мова: українська
переклад: двоголосий закадровий
ролі озвучили: Дмитро Завадський та Юлія Перенчук
кодек: 2.0
бітрейт: 384 кбіт/с

Аудіо # 2:
мова: українська
переклад: двоголосий закадровий
ролі озвучили: Дмитро Завадський та Людмила Ардельян
кодек: 2.0
бітрейт: 384 кбіт/с

Аудіо # 3:
мова: французька
переклад: оригінал
кодек: 2.0
бітрейт: 768 кбіт/с

Субтитри:
мова: французька
тип: програмні (м'які)
формат: *.srt

Субтитри:
мова: англійська
тип: пререндерні
формат: *.pgs

Збережено оригінальні розділи, як на Blu-ray.
Info
Код:
General
Unique ID                   : 317214734238347960789354118915190088436 (0xEEA555E6694A8C073D7808851E5AE2F4)
Complete name               : S:\ Les compères (1983) [UKR_FRE] 1080p [Hurtom].
Format                      :
Format version              : Version 4 / Version 2
File size                   : 7.15 GiB
Duration                    : 1 h 30 min
Overall bit rate            : 11.3 Mb/s
Movie name                  :  Les compères (1983) [UKR_FRE] 1080p [Hurtom]
Encoded date                : UTC 2018-09-10 13:44:58
Writing application         : v24.0.0 ('Beyond The Pale') 64-bit
Writing library             : libebml v1.3.6 + v1.4.9
Cover                       : Yes
Attachments                 : cover.jpg

Video
ID                          : 1
Format                      : AVC
Format/Info                 : Advanced Video Codec
Format profile              : [email protected]
Format settings             : CABAC / 4 Ref Frames
Format settings, CABAC      : Yes
Format settings, ReFrames   : 4 frames
Codec ID                    : V_MPEG4/ISO/AVC
Duration                    : 1 h 30 min
Bit rate                    : 9 700 kb/s
Width                       : 1 804 pixels
Height                      : 1 080 pixels
Display aspect ratio        : 5:3
Frame rate mode             : Constant
Frame rate                  : 24.000 FPS
Color space                 : YUV
Chroma subsampling          : 4:2:0
Bit depth                   : 8 bits
Scan type                   : Progressive
Bits/(Pixel*Frame)          : 0.207
Stream size                 : 6.16 GiB (86%)
Writing library             : core 142 r2491 24e4fed
Encoding settings           : cabac=1 / ref=4 / deblock=1:-3:-2 / analyse=0x3:0x113 / me=umh / subme=11 / psy=1 / psy_rd=1.00:0.00 / mixed_ref=1 / me_range=32 / chroma_me=1 / trellis=2 / 8x8dct=1 / cqm=0 / deadzone=21,11 / fast_pskip=1 / chroma_qp_offset=-2 / threads=12 / lookahead_threads=1 / sliced_threads=0 / nr=0 / decimate=1 / interlaced=0 / bluray_compat=0 / constrained_intra=0 / bframes=5 / b_pyramid=2 / b_adapt=1 / b_bias=0 / direct=2 / weightb=1 / open_gop=0 / weightp=2 / keyint=240 / keyint_min=24 / scenecut=40 / intra_refresh=0 / rc_lookahead=40 / rc=2pass / mbtree=1 / bitrate=9700 / ratetol=1.0 / qcomp=0.60 / qpmin=0 / qpmax=69 / qpstep=4 / cplxblur=20.0 / qblur=0.5 / vbv_maxrate=62500 / vbv_bufsize=78125 / nal_hrd=none / filler=0 / ip_ratio=1.40 / aq=1:1.00
Language                    : English
Default                     : Yes
Forced                      : No

Audio #1
ID                          : 2
Format                      : AC-3
Format/Info                 : Audio Coding 3
Codec ID                    : A_AC3
Duration                    : 1 h 30 min
Bit rate mode               : Constant
Bit rate                    : 384 kb/s
Channel(s)                  : 2 channels
Channel positions           : Front: L R
Sampling rate               : 48.0 kHz
Frame rate                  : 31.250 FPS (1536 SPF)
Bit depth                   : 16 bits
Compression mode            : Lossy
Stream size                 : 250 MiB (3%)
Title                       : DVO 1+1
Language                    : Ukrainian
Service kind                : Complete Main
Default                     : Yes
Forced                      : Yes

Audio #2
ID                          : 3
Format                      : AC-3
Format/Info                 : Audio Coding 3
Codec ID                    : A_AC3
Duration                    : 1 h 30 min
Bit rate mode               : Constant
Bit rate                    : 384 kb/s
Channel(s)                  : 2 channels
Channel positions           : Front: L R
Sampling rate               : 48.0 kHz
Frame rate                  : 31.250 FPS (1536 SPF)
Bit depth                   : 16 bits
Compression mode            : Lossy
Stream size                 : 250 MiB (3%)
Title                       : DVO CTB
Language                    : Ukrainian
Service kind                : Complete Main
Default                     : No
Forced                      : No

Audio #3
ID                          : 4
Format                      :
Format/Info                 : Digital Theater Systems
Codec ID                    : A_DTS
Duration                    : 1 h 30 min
Bit rate mode               : Constant
Bit rate                    : 768 kb/s
Channel(s)                  : 2 channels
Channel positions           : Front: L R
Sampling rate               : 48.0 kHz
Frame rate                  : 93.750 FPS (512 SPF)
Bit depth                   : 24 bits
Compression mode            : Lossy
Stream size                 : 500 MiB (7%)
Language                    : French
Default                     : No
Forced                      : No

Text #1
ID                          : 5
Format                      : UTF-8
Codec ID                    : S_TEXT/UTF8
Codec ID/Info               : UTF-8 Plain Text
Duration                    : 1 h 27 min
Bit rate                    : 53 b/s
Count of elements           : 1128
Stream size                 : 34.7 KiB (0%)
Language                    : French
Default                     : No
Forced                      : No

Text #2
ID                          : 6
Format                      : PGS
Muxing mode                 : zlib
Codec ID                    : S_HDMV/PGS
Codec ID/Info               : Picture based subtitle format used on BDs/HD-DVDs
Duration                    : 1 h 27 min
Bit rate                    : 42.6 kb/s
Count of elements           : 2194
Stream size                 : 26.8 MiB (0%)
Language                    : English
Default                     : No
Forced                      : No

Menu
00:00:00.000                : en:00:00:00.000
00:07:56.082                : en:00:07:56.082
00:15:17.707                : en:00:15:17.707
00:22:53.250                : en:00:22:53.250
00:30:17.250                : en:00:30:17.250
00:37:16.416                : en:00:37:16.416
00:43:53.208                : en:00:43:53.208
00:52:30.000                : en:00:52:30.000
00:59:25.916                : en:00:59:25.916
01:07:02.625                : en:01:07:02.625
01:14:59.000                : en:01:14:59.000
01:23:41.457                : en:01:23:41.457


Джерела та подяки: &
джерело українських доріжок - rooster, _Slavik_, robotron005; українізовані постери - rooster, Тирік; фільмографії акторів та інформація про озвучення - Віктор (всі - Гуртом).

ЗАЛИШАЙТЕСЬ ЯКОМОГА ДОВШЕ НА РОЗДАЧІ!

СКАЧАВ САМ - ДАЙ СКАЧАТИ ІНШИМ


Срібний реліз (на рейтинг впливає 50% завантаженого)
 Трекер:    Зареєстрований   

Завантажити / скачати фільм українською



відео для новачків



 Зареєстрований:   2018-09-10 17:10
 Розмір:   7.15 GB 
 Оцінка фільму:   10/10 (Голосів: 2)
   
Інші релізи
   Татусі / The ComDads / Les compères (1983) 2xUkr/Fra yuranako  5 / 1   1.57 GB   2014-11-29 17:59 
   Татусі / The ComDads / Les compères (1983) 720p 2xUkr/Fra | Sub Eng igor911  2 / 0   10.51 GB   2014-11-29 16:10 
Anоnymous 
Попереджень: 2
Попереджень: 2 


З нами з: 25.08.18
Востаннє: 13.12.18
Повідомлень: 299

2018-09-10 17:08  
Цей звук https://toloka.to/t61064 оригінал запису? чи вже витягнутий з 5.1?
bot 
робот


З нами з: 30.09.07
Востаннє: 26.05.05
Повідомлень: 20337

2018-09-10 17:10  
Тему перенесено з Анонси релізів до форуму Фільми в HD


staf777

Ваш часовий пояс: GMT + 2 Години

Нова тема   Відповісти