Хмарний атлас / Cloud Atlas (2012) 1080p H.265 2xUkr/Eng | Sub Eng

Нові коментарі

Нова тема   Відповісти
Автор Повідомлення
-Star-Lord- 
Поважний учасник


З нами з: 09.08.18
Востаннє: 19.10.18
Повідомлень: 210

2018-09-10 17:13  
Хмарний атлас / Cloud Atlas (2012) 1080p H.265 2xUkr/Eng | Sub Eng

Хмарний атлас / Cloud Atlas (2012) 1080p H.265 2xUkr/Eng | Sub Eng


Жанр: фантастика, драма, пригодницький
Країна: США, Німеччина, Гонконг, Сінгапур



Кінокомпанія: A Company Filmproduktionsgesellschaft, Anarchos Pictures, Ascension Pictures
Режисер: Том Тиквер, Енді Вачовскі, Лана Вачовскі
Актори: Том Хенкс, Хьюго Вівінг, Сьюзен Сарандон, Джим Стерджесс, Холлі Беррі, Кіт Девід, Х'ю Грант, Бен Уішоу, Джим Броудбент, Джеймс д'Арсі

Сюжет:
Фільм "Хмарний атлас" - це складна і заплутана картина, створена за мотивами однойменного роману Девіда Мітчела, сюжетна лінія якої складається з шести різних історій, які відбуваються в різний час - від минулого (середини 19-го століття) до майбутнього ( дві останні історії, герой яких знаходиться вже в постапокаліптичному режимі). Зв'язок між ними усіма - це головна дійова особа (у виконанні Тома Хенкса). Це різні люди, але одна і та ж душа реінкарнована шість разів, і волею долі кожне нове життя якимось чином пов'язана з попереднім ...


Тривалість: 02:52:07
Якість:
Відео: !!! РОСІЙСЬКИЙ ВІДЕОРЯД !!!
кодек: H.265 (HEVC)
розмір кадру: 1920 х 816
бітрейт: 6 182 кб/с
бітова глибина: 10 біт
Увага! Перед завантаженням переконайтесь, що ваш пристрій відтворення (та/або ПЗ) підтримує H.265 (HEVC)

Аудіо # 1:
мова: українська
переклад: професійний дубльований
кодек: 5.1
бітрейт: 448 кб/с

Аудіо # 2:
мова: українська
переклад: багатоголосий закадровий
кодек: 2.0
бітрейт: 192 кб/с

Примітка: на проміжку 02:01:09-02:01:13 використано озвучення з першої доріжки (було вирізано на ТБ)

Аудіо # 3:
мова: англійська
переклад: оригінал
кодек: 2.0
бітрейт: 192 кб/с

Субтитри:
мова: англійська
тип: програмні (м'які)
формат: *.srt


Info
Код:
General
Unique ID                                : 322489467191619503800568670641160229748 (0xF29D3650355757B704BFDEB5106C9374)
Complete name                            : F:\Video\Cloud Atlas (2012) 1080p H.265 [2xUKR_ENG].
Format                                   :
Format version                           : Version 4 / Version 2
File size                                : 8.44 GiB
Duration                                 : 2 h 52 min
Overall bit rate                         : 7 016 kb/s
Movie name                               : Cloud Atlas (2012)
Encoded date                             : UTC 2018-09-10 12:57:11
Writing application                      : v20.0.0 ('I Am The Sun') 32-bit
Writing library                          : libebml v1.3.5 + v1.4.8
Cover                                    : Yes
Attachments                              : Cover.jpg

Video
ID                                       : 1
Format                                   : HEVC
Format/Info                              : High Efficiency Video Coding
Format profile                           : Main [email protected]@High
Codec ID                                 : V_MPEGH/ISO/HEVC
Duration                                 : 2 h 52 min
Bit rate                                 : 6 182 kb/s
Width                                    : 1 920 pixels
Height                                   : 816 pixels
Display aspect ratio                     : 2.35:1
Frame rate mode                          : Constant
Frame rate                               : 23.976 (24000/1001) FPS
Color space                              : YUV
Chroma subsampling                       : 4:2:0
Bit depth                                : 10 bits
Bits/(Pixel*Frame)                       : 0.165
Stream size                              : 7.43 GiB (88%)
Writing library                          : x265 2.8+19-bcdc610cf5f0:[Mac OS X][clang 9.1.0][64 bit] 10bit
Encoding settings                        : cpuid=1111039 / frame-threads=14 / wpp / no-pmode / no-pme / no-psnr / no-ssim / log-level=3 / input-csp=1 / input-res=1920x816 / interlace=0 / total-frames=0 / level-idc=51 / high-tier=1 / uhd-bd=0 / ref=5 / allow-non-conformance / no-repeat-headers / annexb / no-aud / no-hrd / info / hash=0 / no-temporal-layers / open-gop / min-keyint=24 / keyint=240 / gop-lookahead=0 / bframes=8 / b-adapt=2 / b-pyramid / bframe-bias=0 / rc-lookahead=60 / lookahead-slices=5 / scenecut=40 / radl=0 / no-intra-refresh / ctu=64 / min-cu-size=8 / no-rect / no-amp / max-tu-size=32 / tu-inter-depth=1 / tu-intra-depth=1 / limit-tu=0 / rdoq-level=0 / dynamic-rd=0.00 / no-ssim-rd / signhide / no-tskip / nr-intra=0 / nr-inter=0 / no-constrained-intra / strong-intra-smoothing / max-merge=2 / limit-refs=3 / no-limit-modes / me=2 / subme=7 / merange=57 / temporal-mvp / weightp / no-weightb / no-analyze-src-pics / deblock=-3:-3 / sao / no-sao-non-deblock / rd=3 / no-early-skip / rskip / no-fast-intra / no-tskip-fast / no-cu-lossless / no-b-intra / no-splitrd-skip / rdpenalty=0 / psy-rd=2.00 / psy-rdoq=0.00 / no-rd-refine / no-lossless / cbqpoffs=0 / crqpoffs=0 / rc=crf / crf=18.0 / qcomp=0.60 / qpstep=4 / stats-write=0 / stats-read=0 / vbv-maxrate=60000 / vbv-bufsize=60000 / vbv-init=0.9 / crf-max=0.0 / crf-min=0.0 / ipratio=1.40 / pbratio=1.30 / aq-mode=1 / aq-strength=1.00 / cutree / zone-count=0 / no-strict-cbr / qg-size=32 / no-rc-grain / qpmax=69 / qpmin=0 / no-const-vbv / sar=1 / overscan=0 / videoformat=5 / range=0 / colorprim=1 / transfer=1 / colormatrix=1 / chromaloc=0 / display-window=0 / max-cll=0,0 / min-luma=0 / max-luma=1023 / log2-max-poc-lsb=8 / vui-timing-info / vui-hrd-info / slices=1 / no-opt-qp-pps / no-opt-ref-list-length-pps / no-multi-pass-opt-rps / scenecut-bias=0.05 / no-opt-cu-delta-qp / no-aq-motion / no-hdr / no-hdr-opt / no-dhdr10-opt / no-idr-recovery-sei / analysis-reuse-level=5 / scale-factor=0 / refine-intra=0 / refine-inter=0 / refine-mv=0 / no-limit-sao / ctu-info=0 / no-lowpass-dct / refine-mv-type=0 / copy-pic=1 / max-ausize-factor=1.0 / no-dynamic-refine / no-single-sei
Language                                 : English
Default                                  : Yes
Forced                                   : No
Color range                              : Limited
Color primaries                          : BT.709
Transfer characteristics                 : BT.709
Matrix coefficients                      : BT.709

Audio #1
ID                                       : 2
Format                                   : AC-3
Format/Info                              : Audio Coding 3
Codec ID                                 : A_AC3
Duration                                 : 2 h 52 min
Bit rate mode                            : Constant
Bit rate                                 : 448 kb/s
Channel(s)                               : 6 channels
Channel positions                        : Front: L C R, Side: L R, LFE
Sampling rate                            : 48.0 kHz
Frame rate                               : 31.250 FPS (1536 SPF)
Bit depth                                : 16 bits
Compression mode                         : Lossy
Stream size                              : 552 MiB (6%)
Title                                    : DVD
Language                                 : Ukrainian
Service kind                             : Complete Main
Default                                  : Yes
Forced                                   : No

Audio #2
ID                                       : 3
Format                                   : AC-3
Format/Info                              : Audio Coding 3
Codec ID                                 : A_AC3
Duration                                 : 2 h 52 min
Bit rate mode                            : Constant
Bit rate                                 : 192 kb/s
Channel(s)                               : 2 channels
Channel positions                        : Front: L R
Sampling rate                            : 48.0 kHz
Frame rate                               : 31.250 FPS (1536 SPF)
Bit depth                                : 16 bits
Compression mode                         : Lossy
Stream size                              : 236 MiB (3%)
Title                                    : 2+2
Language                                 : Ukrainian
Service kind                             : Complete Main
Default                                  : No
Forced                                   : No

Audio #3
ID                                       : 4
Format                                   : AC-3
Format/Info                              : Audio Coding 3
Codec ID                                 : A_AC3
Duration                                 : 2 h 52 min
Bit rate mode                            : Constant
Bit rate                                 : 192 kb/s
Channel(s)                               : 2 channels
Channel positions                        : Front: L R
Sampling rate                            : 48.0 kHz
Frame rate                               : 31.250 FPS (1536 SPF)
Bit depth                                : 16 bits
Compression mode                         : Lossy
Stream size                              : 236 MiB (3%)
Title                                    : Original
Language                                 : English
Service kind                             : Complete Main
Default                                  : No
Forced                                   : No

Text
ID                                       : 5
Format                                   : UTF-8
Codec ID                                 : S_TEXT/UTF8
Codec ID/Info                            : UTF-8 Plain Text
Duration                                 : 2 h 42 min
Bit rate                                 : 54 b/s
Count of elements                        : 1707
Stream size                              : 65.6 KiB (0%)
Language                                 : English
Default                                  : Yes
Forced                                   : No

Menu
00:00:00.000                             : :Chapter 01
00:05:23.698                             : :Chapter 02
00:14:48.178                             : :Chapter 03
00:24:37.559                             : :Chapter 04
00:31:45.361                             : :Chapter 05
00:38:48.200                             : :Chapter 06
00:46:39.087                             : :Chapter 07
00:54:30.475                             : :Chapter 08
00:59:25.937                             : :Chapter 09
01:06:08.381                             : :Chapter 10
01:12:34.183                             : :Chapter 11
01:20:25.153                             : :Chapter 12
01:26:51.080                             : :Chapter 13
01:33:15.006                             : :Chapter 14
01:39:44.645                             : :Chapter 15
01:45:39.374                             : :Chapter 16
01:53:32.388                             : :Chapter 17
02:00:03.070                             : :Chapter 18
02:09:22.629                             : :Chapter 19
02:16:09.870                             : :Chapter 20
02:22:03.264                             : :Chapter 21
02:29:16.405                             : :Chapter 22
02:37:01.912                             : :Chapter 23
02:42:50.218                             : :Chapter 24
Скріншоти



Джерело:
Особиста оцінка: 10 - без зайвих вагань рекомендую всім!


 Трекер:    Зареєстрований   

Завантажити / скачати фільм українською



відео для новачків



 Зареєстрований:   2018-09-10 17:13
 Розмір:   8.44 GB 
 Оцінка фільму:   8.4/10 (Голосів: 10)
   
Інші релізи
   Хмарний атлас / Cloud Atlas (2012) 2xUkr/Eng drop_plz  32 / 1   3.45 GB   2018-08-02 13:50 
   Хмарний атлас / Cloud Atlas (2012) 1080p Ukr/Eng | sub Eng pintg  11 / 0   15.56 GB   2016-08-11 09:43 
   Хмарний атлас / Cloud Atlas (2012) [Open Matte] Ukr/Eng AngryBirdsUA  14 / 0   2.91 GB   2015-02-18 15:42 
   Хмарний атлас / Cloud Atlas (2012) DVD9 Ukr/Rus | Ліцензія vamp69  0 / 1   7.41 GB   2013-02-25 19:13 
   Хмарний атлас / Cloud Atlas (2012) 720p Ukr/Eng | sub Eng 11FrYkT  6 / 0   8.26 GB   2013-02-24 17:09 
   Хмарний атлас / Cloud Atlas (2012) AVC Ukr/Eng | sub Eng DеLight  4 / 0   3.45 GB   2013-02-24 13:26 
Volovik 
VIP


З нами з: 21.02.10
Востаннє: 21.10.18
Повідомлень: 396

2018-09-19 07:52  
російський відеоряд(
igor911 
Відео Гуртом
Відео Гуртом


З нами з: 18.01.08
Востаннє: 21.10.18
Повідомлень: 11255

2018-09-19 08:55  
Volovik, дякую, додав попередження в опис.
-Star-Lord- 
Поважний учасник


З нами з: 09.08.18
Востаннє: 19.10.18
Повідомлень: 210

2018-09-19 12:29  
Volovik
А чим це погано?

Ваш часовий пояс: GMT + 2 Години

Нова тема   Відповісти