Комунар / Common Wealth / La comunidad (2000) 720p Ukr/Spa

Нові коментарі

Нова тема   Відповісти
Автор Повідомлення
urij546724 
Відео Гуртом - фільмокрай
Відео Гуртом - фільмокрай


З нами з: 16.03.10
Востаннє: 19.10.18
Повідомлень: 5494

2018-09-10 15:02  
Комунар / Common Wealth / La comunidad (2000) 720p Ukr/Spa

Комунар / Common Wealth / La comunidad (2000) 720p Ukr/Spa


Жанр: кримінальний, комедія, жахи, детектив, трилер
Країна: Іспанія



Кіностудія / кінокомпанія: Antena 3 Televisión, Lolafilms, Vía Digital
Режисер: Алекс де ла Іглесіа (Álex de la Iglesia)
Актори: Кармен Маура (Carmen Maura), Едуардо Антунья (Eduardo Antuña), Марія Аскюреньйо (María Asquerino), Хесус Бонілла (Jesús Bonilla), Марта Фернандез Муро (Marta Fernández Muro), Пака Габальдон (Paca Gabaldón), Ане Габарайн (Ane Gabarain), Санчо Грація (Sancho Gracia), Еміліо Гутьєррез Каба (Emilio Gutiérrez Caba)...

Сюжет:
Джулія працює агентом з продажу нерухомості. Вона знаходить триста мільйонів песет, які приховані в квартирі померлого орендаря, і звичайно хоче ними заволодіти, але для цього їй доведеться піти на великі хитрощі. Їй доведеться зіткнутися з гнівом дуже дивних сусідів, очолюваних несумлінним адміністратором...
Нагороди та номінації:

Європейська кіноакадемія, 2001 рік
Номінації (2):
Приз глядацьких симпатій за кращу жіночу роль (Кармен Маура)
Приз глядацьких симпатій за кращу роботу режисера (Алекс де ла Іглесіа)

Гойя, 2001 рік
Переможець (3):
Краща жіноча роль (Кармен Маура)
Краща чоловіча роль другого плану (Еміліо Гутьєррес Каба)
Кращі спецефекти
Номінації (12):
Кращий фільм
Краща жіноча роль другого плану (Терелі Павесі)
Кращий режисер (Алекс де ла Іглесіа)
Кращий оригінальний сценарій
Краща робота оператора
Краща робота художника по костюмах
Кращий звук
Кращий монтаж
Кращий оригінальний саундтрек
Краща робота художника-постановника
Краще керівництво виробництвом
Кращий грим / зачіски

Сан-Себастьян, 2000 рік
Переможець (1):
Срібна раковина за кращу жіночу роль (Кармен Маура)
Номінації (1):
Золота раковина
Тривалість: 01:49:29
Якість: 720p
Відео:
кодек:
розмір кадру: 1280 х 546
бітрейт: 8848 кб/с
частота кадрів: 24 к/с (fps)

Аудіо #1:
мова: українська
переклад: двоголосий закадровий
кодек: 2.0
бітрейт: 192 кб/с
запис звуку з каналів: ТВ4 (Тернопіль), Вінтаж
озвучено: ОмегаТВ

Аудіо #2:
мова: іспанська
переклад: оригінал
кодек: 5.1
бітрейт: 640 кб/с
Media info:
General
Unique ID : 253967405831179159089324982534072037626 (0xBF1057DA91E2264182660D48F7B5F0FA)
Format :
Format version : Version 2
File size : 7.55 GiB
Duration : 1 h 49 min
Overall bit rate : 9 876 kb/s
Movie name : La comunidad (2000) [Ukr.OmegaTV_Spa_Ita_AC3, sub Ita_Eng] 720p [Hurtom] by urij546724
Encoded date : UTC 2018-09-10 15:46:41
Writing application : v2.9.7 ('Tenderness') built on Jul 1 2009 18:43:35
Writing library : libebml v0.7.7 + v0.8.1
Attachments : La comunidad (2000) [Ukr.OmegaTV_Spa_Ita_AC3, sub Ita_Eng] 720p [Hurtom] by urij546724.jpg

Video
ID : 1
Format : AVC
Format/Info : Advanced Video Codec
Format profile : [email protected]
Format settings : CABAC / 11 Ref Frames
Format settings, CABAC : Yes
Format settings, ReFrames : 11 frames
Codec ID : V_MPEG4/ISO/AVC
Duration : 1 h 49 min
Bit rate : 8 848 kb/s
Width : 1 280 pixels
Height : 546 pixels
Display aspect ratio : 2.35:1
Frame rate mode : Constant
Frame rate : 24.000 FPS
Color space : YUV
Chroma subsampling : 4:2:0
Bit depth : 8 bits
Scan type : Progressive
Bits/(Pixel*Frame) : 0.527
Stream size : 6.77 GiB (90%)
Title : La comunidad (2000) 720p [Hurtom] by urij546724
Writing library : core 146 r2538kMod 121396c
Encoding settings : cabac=1 / ref=11 / deblock=1:-3:-3 / analyse=0x3:0x133 / me=umh / subme=10 / psy=1 / fade_compensate=0.00 / psy_rd=1.10:0.00 / mixed_ref=1 / me_range=24 / chroma_me=1 / trellis=2 / 8x8dct=1 / cqm=0 / deadzone=21,11 / fast_pskip=0 / chroma_qp_offset=-2 / threads=12 / lookahead_threads=2 / sliced_threads=0 / nr=0 / decimate=0 / interlaced=0 / bluray_compat=0 / constrained_intra=0 / fgo=0 / bframes=7 / b_pyramid=2 / b_adapt=2 / b_bias=0 / direct=3 / weightb=1 / open_gop=0 / weightp=2 / keyint=250 / keyint_min=24 / scenecut=40 / intra_refresh=0 / rc_lookahead=60 / rc=crf / mbtree=0 / crf=17.0000 / qcomp=0.65 / qpmin=0 / qpmax=69 / qpstep=4 / vbv_maxrate=62500 / vbv_bufsize=78125 / crf_max=0.0 / nal_hrd=none / filler=0 / ip_ratio=1.30 / pb_ratio=1.20 / aq=3:0.75
Language : English
Default : Yes
Forced : No
Color range : Limited
Matrix coefficients : BT.709
Statistics Tags Issue : v9.4.2 ('So High') 64bit 2016-10-15 22:59:33 / v2.9.7 ('Tenderness') built on Jul 1 2009 18:43:35 2018-09-10 15:46:41
FromStats_BitRate : 9041698
FromStats_Duration : 01:49:29.709000000
FromStats_FrameCount : 157673
FromStats_StreamSize : 7425166087

Audio #1
ID : 2
Format : AC-3
Format/Info : Audio Coding 3
Codec ID : A_AC3
Duration : 1 h 49 min
Bit rate mode : Constant
Bit rate : 192 kb/s
Channel(s) : 2 channels
Channel positions : Front: L R
Sampling rate : 48.0 kHz
Frame rate : 31.250 FPS (1536 SPF)
Bit depth : 16 bits
Compression mode : Lossy
Stream size : 150 MiB (2%)
Title : Українська доріжка (ОмегаТВ)
Language : Ukrainian
Service kind : Complete Main
Default : Yes
Forced : Yes

Audio #2
ID : 3
Format : AC-3
Format/Info : Audio Coding 3
Codec ID : A_AC3
Duration : 1 h 49 min
Bit rate mode : Constant
Bit rate : 640 kb/s
Channel(s) : 6 channels
Channel positions : Front: L C R, Side: L R, LFE
Sampling rate : 48.0 kHz
Frame rate : 31.250 FPS (1536 SPF)
Bit depth : 16 bits
Compression mode : Lossy
Stream size : 501 MiB (6%)
Title : Іспанська доріжка
Language : Spanish
Service kind : Complete Main
Default : No
Forced : No

Menu
00:00:00.000 : en:00:00:00.000
00:08:29.542 : en:00:08:29.542
00:15:46.500 : en:00:15:46.500
00:22:43.292 : en:00:22:43.292
00:36:52.625 : en:00:36:52.625
00:47:30.000 : en:00:47:30.000
01:00:20.333 : en:01:00:20.333
01:08:56.292 : en:01:08:56.292
01:21:48.833 : en:01:21:48.833
01:29:16.667 : en:01:29:16.667
01:44:03.000 : en:01:44:03.000
01:46:38.917 : en:01:46:38.917
Скріншоти:





Трейлери:



Семпл
Джерело 1_________Джерело 2_________Джерело 3_________Джерело 4_________Джерело 5
У випадку, якщо з усіх джерел семпл видалять, прохання повідомити мені у ПРИВАТ


Подяка:

1. Пану urij546724 за запис звуку з ТБ.


Джерело:


Срібний реліз (на рейтинг впливає 50% завантаженого)
 Трекер:    Зареєстрований   

Завантажити / скачати фільм українською



відео для новачків



 Зареєстрований:   2018-09-10 19:53
 Розмір:   7.55 GB 
 Оцінка фільму:   10/10 (Голосів: 4)
 Прохання залишати коментарі і не тікати з роздачі.
   
Інші релізи
   Комунар / Common Wealth / La comunidad (2000) drop_plz  6 / 0   1.46 GB   2018-05-26 09:35 
igor911 
Відео Гуртом
Відео Гуртом


З нами з: 18.01.08
Востаннє: 19.10.18
Повідомлень: 11249

2018-09-10 15:07  
urij546724 написано:

Аудіо #3:
мова: італійська
переклад: оригінал

з якого дива це оригінал? Треба перемуксувати файл релізу без італійської доріжки.

Додано через 2 хвилини 5 секунд:

urij546724 написано:
триллер

з одним "л" українською.

urij546724 
Відео Гуртом - фільмокрай
Відео Гуртом - фільмокрай


З нами з: 16.03.10
Востаннє: 19.10.18
Повідомлень: 5494

2018-09-10 19:59  
igor911 написано:
Треба перемуксувати файл релізу без італійської доріжки.

Видалив усе зайве.
Хоча щодо оригінальності іспанської, яка є тут, теж є сумніви. Озвучено наче поверх іспанської, але репліки відрізняються від тої що у ріпі, тож або наші озвучили поверх іншої озвучки, або ж доріжка #2 не зовсім іспанська.

igor911 написано:
з одним "л" українською.

виправив

igor911 
Відео Гуртом
Відео Гуртом


З нами з: 18.01.08
Востаннє: 19.10.18
Повідомлень: 11249

2018-09-10 20:04  
urij546724 написано:
Видалив усе зайве

Для довідки - субтитри дозволяються будь-якою мовою, обмеження в Правилах лише щодо української та оригінальної доріжки. Яка оригінальна - в даному випадку не виникало сумнівів - скрізь (імдб, вікіпедія) вказано лише іспанську, країна виробник - теж лише Іспанія.

hudda 
Частий відвідувач


З нами з: 07.06.09
Востаннє: 19.10.18
Повідомлень: 47

2018-09-10 21:08  
Цитата:
Хтось може переробити доріжку під ?

Цитата:
Є 720p: https://toloka.to/t94991

Дуже вам дякую за реліз!

hetzendorf 
Відео Гуртом - підтримка та поширення
Відео Гуртом - підтримка та поширення


З нами з: 23.07.15
Востаннє: 19.10.18
Повідомлень: 1303

2018-09-23 01:57  
urij546724 написано:
Озвучено наче поверх іспанської

Поверх французької.
urij546724 написано:
доріжка #2 не зовсім іспанська

Іспанська. Зовсім.

Фільм дуже кумедний і дотепний, хоча й кривавий, але що ж поробиш — іспанці ^_^
9/10

Ваш часовий пояс: GMT + 2 Години

Нова тема   Відповісти