Здичавіла / Wildling (2018) Remux 1080p Ukr/Eng | Sub Eng

Нові коментарі

Нова тема   Відповісти
Автор Повідомлення
staf777 
Попереджень: 1
Попереджень: 1 


З нами з: 16.11.16
Востаннє: 16.10.18
Повідомлень: 1632

2018-09-10 13:40  
Здичавіла / Wildling (2018) Remux 1080p Ukr/Eng | Sub Eng

Здичавіла / Wildling (2018) Remux 1080p Ukr/Eng | Sub Eng


Жанр: драма, жахи, трилер, фентезі
Країна: США



Кінокомпанія: Maven Pictures, Film i Väst, Filmgate Films
Режисер: Фрідріх Боем
Актори: Лів Тайлер, Бред Дуріф, Бел Паулі, Джеймс ЛеГрос, Майк Фейст, Трой Раптеш, Шарлотта Уббен

Сюжет:
Страшна казка про 16-річну Анну, яка все дитинство провела в чотирьох стінах. Її загадковий вихователь залякав дівчинку монстром, що нишпорить зовні і пожирає дітей. Але варто звільненій Анні дізнатися, що це брехня, як починають відбуватися страшні події.


Тривалість: 01:32:33
Якість: Remux 1080p
Відео:
кодек:
розмір кадру: 1920x1080
бітрейт: 25 Mб/с

Аудіо # 1:
мова: українська
переклад: багатоголосий закадровий | студія Tretyakoff production
кодек: 2.0 [стерео]
бітрейт: 192 кб/с

Аудіо # 2:
мова: англійська
переклад: оригінал
кодек: -HD MA 5.1
бітрейт: 1871 кб/с

Субтитри # 1-2:
мова: англійська (повні, SDH)
тип: програмні (м'які)
формат: *.srt
Info
General
Unique ID : 227525354896342561012946231307458278673 (0xAB2BCA16C9C5A777E0ED66A4A7B77511)
Complete name : S:\Фільми в HD\Жахи\Wildling (2018) Remux 1080p [UKR_ENG] [Hurtom].
Format :
Format version : Version 4 / Version 2
File size : 17.5 GiB
Duration : 1 h 32 min
Overall bit rate mode : Variable
Overall bit rate : 27.1 Mb/s
Movie name : Wildling (2018) Remux 1080p [UKR_ENG] [Hurtom]
Encoded date : UTC 2018-09-10 12:21:06
Writing application : v24.0.0 ('Beyond The Pale') 64-bit
Writing library : libebml v1.3.6 + v1.4.9
Cover : Yes
Attachments : cover

Video
ID : 1
Format : MPEG Video
Format version : Version 2
Format profile : [email protected]
Format settings : BVOP
Format settings, BVOP : Yes
Format settings, Matrix : Default
Format settings, GOP : M=3, N=12
Codec ID : V_MPEG2
Codec ID/Info : MPEG 1 or 2 Video
Duration : 1 h 32 min
Bit rate mode : Variable
Bit rate : 25.0 Mb/s
Maximum bit rate : 40.0 Mb/s
Width : 1 920 pixels
Height : 1 080 pixels
Display aspect ratio : 16:9
Frame rate mode : Constant
Frame rate : 23.976 (24000/1001) FPS
Color space : YUV
Chroma subsampling : 4:2:0
Bit depth : 8 bits
Scan type : Progressive
Compression mode : Lossy
Bits/(Pixel*Frame) : 0.503
Time code of first frame : 00:00:00:00
Time code source : Group of pictures header
GOP, Open/Closed : Closed
Stream size : 16.1 GiB (92%)
Language : English
Default : Yes
Forced : No

Audio #1
ID : 2
Format : AC-3
Format/Info : Audio Coding 3
Codec ID : A_AC3
Duration : 1 h 32 min
Bit rate mode : Constant
Bit rate : 192 kb/s
Channel(s) : 2 channels
Channel positions : Front: L R
Sampling rate : 48.0 kHz
Frame rate : 31.250 FPS (1536 SPF)
Bit depth : 16 bits
Compression mode : Lossy
Stream size : 127 MiB (1%)
Title : 2.0 @ 192 kbps
Language : Ukrainian
Service kind : Complete Main
Default : Yes
Forced : Yes

Audio #2
ID : 3
Format :
Format/Info : Digital Theater Systems
Format profile : MA / Core
Codec ID : A_DTS
Duration : 1 h 32 min
Bit rate mode : Variable / Constant
Bit rate : 1 871 kb/s / 1 509 kb/s
Channel(s) : 6 channels
Channel positions : Front: L C R, Side: L R, LFE
Sampling rate : 48.0 kHz
Frame rate : 93.750 FPS (512 SPF)
Bit depth : 16 bits
Compression mode : Lossless / Lossy
Stream size : 1.21 GiB (7%)
Title : Original
Language : English
Default : No
Forced : No

Text #1
ID : 4
Format : UTF-8
Codec ID : S_TEXT/UTF8
Codec ID/Info : UTF-8 Plain Text
Duration : 1 h 23 min
Bit rate : 24 b/s
Count of elements : 482
Stream size : 15.0 KiB (0%)
Title : Full
Language : English
Default : No
Forced : No

Text #2
ID : 5
Format : UTF-8
Codec ID : S_TEXT/UTF8
Codec ID/Info : UTF-8 Plain Text
Duration : 1 h 31 min
Bit rate : 28 b/s
Count of elements : 716
Stream size : 19.0 KiB (0%)
Title : SDH
Language : English
Default : No
Forced : No

Menu
00:00:00.000 : en:00:00:00.000
00:13:22.802 : en:00:13:22.802
00:20:37.737 : en:00:20:37.737
00:31:45.904 : en:00:31:45.904
00:44:54.692 : en:00:44:54.692
01:00:28.625 : en:01:00:28.625
01:11:42.298 : en:01:11:42.298
01:23:40.516 : en:01:23:40.516
Скріншоти



Підтримати купівлю інших фільмів можна тут.

Подяка пану AngryBirdsUA за доріжку та пану Hanway за синхронізацію.
За допомогу в створені реліза дякую пану 11FrYkT
Джерело: &
Особиста оцінка: 0 - не дивився


Золотий реліз (завантажене не впливає на рейтинг)
 Трекер:    Зареєстрований   

Завантажити / скачати фільм українською



відео для новачків



 Зареєстрований:   2018-09-10 16:18
 Розмір:   17.47 GB 
 Оцінка фільму:   7/10 (Голосів: 8)
   
Інші релізи
   Здичавіла / Wildling (2018) igor911  15 / 0   1.33 GB   2018-09-08 10:04 
   Здичавіла / Wildling (2018) AVC Ukr/Eng | Sub Eng 11FrYkT  7 / 1   1.41 GB   2018-09-08 09:09 
   Здичавіла / Wildling (2018) 720p Ukr/Eng | Sub Eng 11FrYkT  14 / 0   4.21 GB   2018-09-08 09:08 
   Здичавіла / Wildling (2018) 1080p Ukr/Eng | Sub Eng staf777  8 / 0   4.58 GB   2018-07-22 19:57 
bot 
робот


З нами з: 30.09.07
Востаннє: 26.05.05
Повідомлень: 19956

2018-09-10 16:18  
Тему перенесено з Анонси релізів до форуму Фільми в HD


staf777

Oleksa_64 
Частий відвідувач


З нами з: 25.07.13
Востаннє: 17.10.18
Повідомлень: 32

2018-09-10 19:29  
Дивно, золотий реліз, а завантажене рахується.
kryk-v.ya. 
VIP


З нами з: 14.02.14
Востаннє: 17.10.18
Повідомлень: 612

2018-09-11 11:52  
Oleksa_64 написано:
Дивно, золотий реліз, а завантажене рахується.

Ганьба!!! Wide grin

Ваш часовий пояс: GMT + 2 Години

Нова тема   Відповісти