Вічна північ / Permanent Midnight (1998) 720p Ukr/Eng | Sub Eng

Нові коментарі

Нова тема   Відповісти
Автор Повідомлення
Anonymous 







2018-09-10 13:29  
Вічна північ / Permanent Midnight (1998) 720p Ukr/Eng | Sub Eng

Вічна північ / Permanent Midnight (1998) 720p Ukr/Eng | Sub Eng


Жанр: біографічний, драма, мелодрама
Країна: США



Кінокомпанія: JD Productions
Режисер: Девід Велос
Актори: Бен Стіллер, Марія Белло, Джей Полстон, Спенсер Гаррет, Овен Вілсон, Елізабет Герлі, Лурдес Бенедікто, Фред Віллард, Чонсі Леопарді, Мері Томпсон, Джанін Гарофало, Пітер Грін, Сандра О, Чарльз Флайшер, Шеріл Ледд, Дуглас Спейн, Сем Андерсон

Сюжет:
Перед вами яскрава історія зльоту і падіння знаменитого американського сценариста Джері Стала, що стрімко став зіркою Голлівуду, і так же швидко втратив все, чого він домігся з таким трудом. Його єдиним порятунком від нервового і морального колапсу стають наркотики, які поступово перетворюють його на лукавого божевільного, що не бачить грані між сном і дійсністю, між порядністю і підлотою. Незабаром, опинившись на руїнах свого успіху, Джері розуміє, що врятує себе, тільки круто змінивши життя, безжально розірвавши павутину порочного дурману...


Тривалість: 01:28:21
Якість: 720p
Відео:
кодек:
розмір кадру: 1280х720
бітрейт: 3881 кб/с

Аудіо # 1:
мова: українська
переклад: двоголосий закадровий
кодек: 5.1
бітрейт: 384 кб/с

Аудіо # 2:
мова: англійська
переклад: оригінал
кодек: 5.1
бітрейт: 384 кб/с

Субтитри:
мова: англійська
тип: програмні (м'які)
формат: *.srt
Info
General
Unique ID : 236804211184056332262610777138818222709 (0xB226D506511C3E6E8C73E9091C088A75)
Format :
Format version : Version 4 / Version 2
File size : 2.93 GiB
Duration : 1 h 28 min
Overall bit rate : 4 743 kb/s
Encoded date : UTC 2018-09-10 10:23:51
Writing application : v6.1.0 ('Old Devil') built on Mar 4 2013 09:10:42
Writing library : libebml v1.3.0 + v1.4.0

Video
ID : 1
Format : AVC
Format/Info : Advanced Video Codec
Format profile : [email protected]
Format settings : 2 Ref Frames
Format settings, CABAC : No
Format settings, ReFrames : 2 frames
Codec ID : V_MPEG4/ISO/AVC
Duration : 1 h 28 min
Bit rate : 3 881 kb/s
Width : 1 280 pixels
Height : 720 pixels
Display aspect ratio : 16:9
Frame rate mode : Constant
Frame rate : 23.976 (24000/1001) FPS
Color space : YUV
Chroma subsampling : 4:2:0
Bit depth : 8 bits
Scan type : Progressive
Bits/(Pixel*Frame) : 0.176
Stream size : 2.39 GiB (82%)
Language : English
Default : Yes
Forced : No
Color range : Limited
Color primaries : BT.709
Transfer characteristics : BT.709
Matrix coefficients : BT.709

Audio #1
ID : 2
Format : AC-3
Format/Info : Audio Coding 3
Codec ID : A_AC3
Duration : 1 h 28 min
Bit rate mode : Constant
Bit rate : 384 kb/s
Channel(s) : 6 channels
Channel positions : Front: L C R, Side: L R, LFE
Sampling rate : 48.0 kHz
Frame rate : 31.250 FPS (1536 SPF)
Bit depth : 16 bits
Compression mode : Lossy
Stream size : 243 MiB (8%)
Title : UKR
Language : Ukrainian
Service kind : Complete Main
Default : Yes
Forced : Yes

Audio #2
ID : 3
Format : AC-3
Format/Info : Audio Coding 3
Codec ID : A_AC3
Duration : 1 h 28 min
Bit rate mode : Constant
Bit rate : 384 kb/s
Channel(s) : 6 channels
Channel positions : Front: L C R, Side: L R, LFE
Sampling rate : 48.0 kHz
Frame rate : 31.250 FPS (1536 SPF)
Bit depth : 16 bits
Compression mode : Lossy
Stream size : 243 MiB (8%)
Title : ENG
Language : English
Service kind : Complete Main
Default : No
Forced : No

Text
ID : 4
Format : UTF-8
Codec ID : S_TEXT/UTF8
Codec ID/Info : UTF-8 Plain Text
Title : ENG
Language : English
Default : No
Forced : No

Menu
00:00:00.000 : en:Permanent Midnight
00:03:20.000 : en:Stud On Smack
00:06:24.000 : en:Chucklehead
00:07:45.000 : en:Green Card
00:10:24.000 : en:Mr. Chompers
00:13:11.000 : en:Rewrite
00:15:10.000 : en:Cough and Flush
00:18:22.000 : en:Diagram of a Scam
00:21:34.000 : en:Mom's Mess
00:22:30.000 : en:Special Occasion
00:25:09.000 : en:Can I Stay?
00:26:22.000 : en:My Name Is Kitty
00:28:12.000 : en:The Charade
00:29:50.000 : en:My Connection
00:31:54.000 : en:Fantastic Agent
00:34:29.000 : en:Rich Civilian Life
00:36:57.000 : en:Mr. Chompers Attacks
00:39:36.000 : en:Keeping the Habit
00:42:20.000 : en:No Such Luck
00:45:17.000 : en:Easy to Spot
00:46:20.000 : en:Detox
00:47:11.000 : en:Get Your Tang?
00:50:22.000 : en:Breaking the Wall
00:52:12.000 : en:Your Business
00:54:05.000 : en:I'm Pregnant
00:56:24.000 : en:Nina Is Born
00:57:51.000 : en:Terrible to Say
01:01:12.000 : en:Babysitting
01:03:42.000 : en:Looking for Gus
01:05:41.000 : en:Finding a Vein
01:07:33.000 : en:Arrested
01:09:57.000 : en:Visitation
01:13:57.000 : en:Kitty Returns
01:16:07.000 : en:Good-Bye Again
01:20:23.000 : en:Talk Shows
01:22:12.000 : en:End Credits
Скріншоти






За українську доріжку подяка п.: MAKAPOHHIK, imonko
Особиста подяка пану denixx за надану матеріальну допомогу на підтримку цього і майбутніх релізів.
Джерело:


Срібний реліз (на рейтинг впливає 50% завантаженого)
 Трекер:    Зареєстрований   

Завантажити / скачати фільм українською



відео для новачків



 Зареєстрований:   2018-09-10 13:29
 Розмір:   2.93 GB 
 Оцінка фільму:   10/10 (Голосів: 3)
   
Інші релізи
   Вічна північ / Permanent Midnight (1998) -AVC Ukr/Eng imonko  1 / 0   1.28 GB   2011-03-14 14:45 
sophist 
Новенький


З нами з: 10.11.12
Востаннє: 20.10.18
Повідомлень: 1

2018-09-21 22:00  
Назва має бути - "Вічно опівночі"
Ваш часовий пояс: GMT + 2 Години

Нова тема   Відповісти