Теорема зеро / The Zero Theorem (2013) 1080p H.265 Ukr/Eng | Sub Eng

Нові коментарі

Нова тема   Відповісти
Автор Повідомлення
-Star-Lord- 
VIP


З нами з: 09.08.18
Востаннє: 19.12.18
Повідомлень: 355

2018-09-10 11:54  
Теорема зеро / The Zero Theorem (2013) 1080p H.265 Ukr/Eng | Sub Eng

Теорема зеро / The Zero Theorem (2013) 1080p H.265 Ukr/Eng | Sub Eng


Жанр: трилер, фантастика, драма
Країна: США, Румунія, Велика Британія



Кінокомпанія: Le Pacte, MediaPro Pictures, Picture Perfect Corporation, Voltage Pictures, Wild Side Films, Zanuck Independent
Режисер: Террі Гілліам
Актори: Крістоф Вальц, Мелані Тьєррі, Девід Тьюліс, Лукас Хеджес, Метт Деймон, Бен Уішоу, Тільда Суінтон, Санджив Бхаскар, Інгрід Бису, Маргаріта Дойл, Петер Стормаре

Сюжет:
У центрі сюжету картини «Теорема Зеро», дія якої розгортається в утопічному світі, - ексцентричний персонаж, самотній комп'ютерний геній Коен Лет, який ніяк не може вирішити одну нерозв'язну теорему Зеро - чи є у житті мета і що це взагалі таке. Завдяки костюму для віртуальної реальності, винайденому хлопчиком Бобом, Лету вдається здійснити подорож в прихований простір і дізнатися таємницю своєї душі. Цю розгадку шукає не тільки він сам, але і таємничий Менеджмент, який править усім світом за допомогою всевидячих пристроїв під назвою ManCams.


Тривалість: 01:46:27
Якість:
Відео:
кодек: H.265 (HEVC)
розмір кадру: 1920 х 1080
бітрейт: 11.1 Mb/s
бітова глибина: 10 біт
Увага! Перед завантаженням переконайтесь, що ваш пристрій відтворення (та/або ПЗ) підтримує H.265 (HEVC)

Аудіо # 1:
мова: українська | Oboz TV
переклад: багатоголосий закадровий
кодек: 2.0
бітрейт: 192 кб/с

Аудіо # 2:
мова: англійська
переклад: оригінал
кодек: 5.1
бітрейт: 576 кб/с

Субтитри:
мова: англійська
тип: програмні (м'які)
формат: *.srt


Info
Код:
General
Unique ID                                : 310954456417741070030309166448446093280 (0xE9EFA65F8E28CE55486507569A9137E0)
Complete name                            : F:\Video\The Zero Theorem (2013) 1080p H.265 [UKR_ENG].
Format                                   :
Format version                           : Version 4 / Version 2
File size                                : 8.84 GiB
Duration                                 : 1 h 46 min
Overall bit rate                         : 11.9 Mb/s
Movie name                               : The Zero Theorem (2013)
Encoded date                             : UTC 2018-09-09 09:45:03
Writing application                      : v20.0.0 ('I Am The Sun') 32-bit
Writing library                          : libebml v1.3.5 + v1.4.8
Cover                                    : Yes
Attachments                              : Cover.jpg

Video
ID                                       : 1
Format                                   : HEVC
Format/Info                              : High Efficiency Video Coding
Format profile                           : Main [email protected]@Main
Codec ID                                 : V_MPEGH/ISO/HEVC
Duration                                 : 1 h 46 min
Bit rate                                 : 11.1 Mb/s
Width                                    : 1 920 pixels
Height                                   : 1 080 pixels
Display aspect ratio                     : 16:9
Frame rate mode                          : Constant
Frame rate                               : 23.976 (24000/1001) FPS
Color space                              : YUV
Chroma subsampling                       : 4:2:0
Bit depth                                : 10 bits
Bits/(Pixel*Frame)                       : 0.224
Stream size                              : 8.27 GiB (94%)
Writing library                          : x265 2.5+25-4b95f82c9fb1:[Windows][MSVC 1911][64 bit] 10bit
Encoding settings                        : cpuid=1050111 / frame-threads=3 / numa-pools=8 / wpp / no-pmode / no-pme / no-psnr / no-ssim / log-level=2 / input-csp=1 / input-res=1920x1080 / interlace=0 / total-frames=153144 / level-idc=0 / high-tier=1 / uhd-bd=0 / ref=5 / no-allow-non-conformance / no-repeat-headers / annexb / no-aud / no-hrd / info / hash=0 / no-temporal-layers / open-gop / min-keyint=23 / keyint=250 / bframes=8 / b-adapt=2 / b-pyramid / bframe-bias=0 / rc-lookahead=90 / lookahead-slices=0 / scenecut=40 / no-intra-refresh / ctu=64 / min-cu-size=8 / rect / amp / max-tu-size=32 / tu-inter-depth=3 / tu-intra-depth=3 / limit-tu=4 / rdoq-level=2 / dynamic-rd=0.00 / no-ssim-rd / signhide / no-tskip / nr-intra=0 / nr-inter=0 / no-constrained-intra / no-strong-intra-smoothing / max-merge=4 / limit-refs=1 / limit-modes / me=3 / subme=4 / merange=57 / temporal-mvp / weightp / weightb / no-analyze-src-pics / deblock=3:3 / no-sao / no-sao-non-deblock / rd=6 / no-early-skip / no-rskip / no-fast-intra / no-tskip-fast / no-cu-lossless / b-intra / no-splitrd-skip / rdpenalty=0 / psy-rd=1.40 / psy-rdoq=1.00 / no-rd-refine / analysis-reuse-mode=0 / no-lossless / cbqpoffs=3 / crqpoffs=3 / rc=crf / crf=19.0 / qcomp=0.60 / qpstep=4 / stats-write=0 / stats-read=0 / ipratio=1.40 / pbratio=1.30 / aq-mode=3 / aq-strength=1.00 / cutree / zone-count=0 / no-strict-cbr / qg-size=32 / no-rc-grain / qpmax=69 / qpmin=0 / no-const-vbv / sar=0 / overscan=0 / videoformat=5 / range=0 / colorprim=2 / transfer=2 / colormatrix=2 / chromaloc=0 / display-window=0 / max-cll=0,0 / min-luma=0 / max-luma=1023 / log2-max-poc-lsb=8 / vui-timing-info / vui-hrd-info / slices=1 / opt-qp-pps / opt-ref-list-length-pps / no-multi-pass-opt-rps / scenecut-bias=0.05 / no-opt-cu-delta-qp / no-aq-motion / no-hdr / no-hdr-opt / no-dhdr10-opt / analysis-reuse-level=5 / scale-factor=0 / refine-intra=0 / refine-inter=0 / refine-mv=0 / no-limit-sao / ctu-info=0
Language                                 : English
Default                                  : Yes
Forced                                   : No

Audio #1
ID                                       : 2
Format                                   : AC-3
Format/Info                              : Audio Coding 3
Codec ID                                 : A_AC3
Duration                                 : 1 h 46 min
Bit rate mode                            : Constant
Bit rate                                 : 192 kb/s
Channel(s)                               : 2 channels
Channel positions                        : Front: L R
Sampling rate                            : 48.0 kHz
Frame rate                               : 31.250 FPS (1536 SPF)
Bit depth                                : 16 bits
Compression mode                         : Lossy
Stream size                              : 146 MiB (2%)
Title                                    : Oboz TV
Language                                 : Ukrainian
Service kind                             : Complete Main
Default                                  : Yes
Forced                                   : No

Audio #2
ID                                       : 3
Format                                   :
Format/Info                              : Advanced Audio Codec
Format profile                           : LC
Codec ID                                 : A_AAC-2
Duration                                 : 1 h 46 min
Bit rate                                 : 576 kb/s
Channel(s)                               : 6 channels
Channel positions                        : Front: L C R, Side: L R, LFE
Sampling rate                            : 48.0 kHz
Frame rate                               : 46.875 FPS (1024 SPF)
Compression mode                         : Lossy
Delay relative to video                  : 9 ms
Stream size                              : 439 MiB (5%)
Language                                 : English
Default                                  : No
Forced                                   : No

Text
ID                                       : 4
Format                                   : UTF-8
Codec ID                                 : S_TEXT/UTF8
Codec ID/Info                            : UTF-8 Plain Text
Duration                                 : 1 h 44 min
Bit rate                                 : 61 b/s
Count of elements                        : 1491
Stream size                              : 47.0 KiB (0%)
Language                                 : English
Default                                  : Yes
Forced                                   : No

Menu
00:00:00.000                             : en:00:00:00.000
00:05:37.963                             : en:00:05:37.963
00:12:46.474                             : en:00:12:46.474
00:20:42.032                             : en:00:20:42.032
00:26:03.479                             : en:00:26:03.479
00:34:39.119                             : en:00:34:39.119
00:38:38.274                             : en:00:38:38.274
00:43:15.760                             : en:00:43:15.760
00:47:40.900                             : en:00:47:40.900
00:55:51.557                             : en:00:55:51.557
01:00:55.110                             : en:01:00:55.110
01:05:50.613                             : en:01:05:50.613
01:15:47.460                             : en:01:15:47.460
01:25:13.442                             : en:01:25:13.442
01:32:21.536                             : en:01:32:21.536
01:38:55.930                             : en:01:38:55.930
Скріншоти




Джерело:
Особиста оцінка: 0 - не дивився


 Трекер:    Зареєстрований   

Завантажити / скачати фільм українською



відео для новачків



 Зареєстрований:   2018-09-10 11:54
 Розмір:   8.84 GB 
 Оцінка фільму:   6/10 (Голосів: 1)
   
Інші релізи
   Теорема зеро / The Zero Theorem (2013) Remux 1080p Ukr/Eng | Sub Eng IronBee  1 / 0   20.49 GB   2018-09-03 18:51 
   Теорема зеро / The Zero Theorem (2013) AVC sergiyko.5  10 / 0   1.33 GB   2018-08-29 20:23 
   Теорема зеро / The Zero Theorem (2013) Ukr/Eng sergiyko.5  8 / 0   1.96 GB   2018-08-29 15:53 
   Теорема зеро / The Zero Theorem (2013) 1080p Ukr/Eng | Sub Eng sergiyko.5  5 / 0   8.2 GB   2018-08-29 15:50 
Ваш часовий пояс: GMT + 2 Години

Нова тема   Відповісти