Суддя Дредд / Dredd (2012) 1080p H.265 2хUkr/Eng | Sub Eng

Нові коментарі

Нова тема   Відповісти
Автор Повідомлення
-Star-Lord- 
VIP


З нами з: 09.08.18
Востаннє: 25.05.19
Повідомлень: 783

2018-09-10 12:37  
Суддя Дредд / Dredd (2012) 1080p H.265 2хUkr/Eng | Sub Eng

Суддя Дредд / Dredd (2012) 1080p H.265 2хUkr/Eng | Sub Eng


Жанр: кримінальний, фантастика, трилер
Країна: Велика Британія, США, Індія



Кінокомпанія: DNA Films, IM Global, Reliance Entertainment
Режисер: Піт Трейвіс
Актори: Карл Урбан, Олівія Тірлбі, Ліна Гіді, Вуд Харріс, Рейчел Вуд

Сюжет:
У жорстокому, футуристичному місті за порядок відповідає Міністерство Юстиції, працівники якого, Судді, мають повноваження судді, присяжних та ката. Знаменитий Суддя Дредд разом із стажером потрапляє в лігво банди наркоторговців, які розповсюджують новий наркотик, що змінює реальність, Лета.


Українською мовою озвучено студією Омікрон на замовлення HURTOM.COM


Тривалість: 01:35:51
Якість:
Відео:
кодек: H.265 (HEVC)
розмір кадру: 1920 х 800
бітрейт: 4 935 кб/с
бітова глибина: 10 біт
Увага! Перед завантаженням переконайтесь, що ваш пристрій відтворення (та/або ПЗ) підтримує H.265 (HEVC)

Аудіо # 1:
мова: українська | "Студія Омікрон" |
переклад: багатоголосий закадровий
кодек: 5.1
бітрейт: 1 509 кб/с

Аудіо # 2:
мова: українська
переклад: багатоголосий закадровий
кодек: 2.0
бітрейт: 192 кб/с

Аудіо # 3:
мова: англійська
переклад: оригінал
кодек: E- 5.1
бітрейт: 448 кб/с

Субтитри:
мова: англійська
тип: програмні (м'які)
формат: *.srt


Info
Код:
General
Unique ID                                : 337285421315676705388177369484239521623 (0xFDBECF2C6E537984532F89AAD4474757)
Complete name                            : F:\Video\Dredd (2012) 1080p H.265 [2xUKR_ENG].
Format                                   :
Format version                           : Version 4 / Version 2
File size                                : 4.75 GiB
Duration                                 : 1 h 35 min
Overall bit rate                         : 7 087 kb/s
Movie name                               : Dredd (2012)
Encoded date                             : UTC 2018-09-06 15:42:15
Writing application                      : v20.0.0 ('I Am The Sun') 32-bit
Writing library                          : libebml v1.3.5 + v1.4.8
Cover                                    : Yes
Attachments                              : Cover.jpg

Video
ID                                       : 1
Format                                   : HEVC
Format/Info                              : High Efficiency Video Coding
Format profile                           : Main [email protected]@Main
Codec ID                                 : V_MPEGH/ISO/HEVC
Duration                                 : 1 h 35 min
Bit rate                                 : 4 935 kb/s
Width                                    : 1 920 pixels
Height                                   : 800 pixels
Display aspect ratio                     : 2.40:1
Frame rate mode                          : Constant
Frame rate                               : 23.976 (23976/1000) FPS
Original frame rate                      : 23.976 (24000/1001) FPS
Color space                              : YUV
Chroma subsampling                       : 4:2:0
Bit depth                                : 10 bits
Bits/(Pixel*Frame)                       : 0.134
Stream size                              : 3.30 GiB (70%)
Writing library                          : x265 1.9:[Windows][GCC 4.9.2][64 bit] 10bit
Encoding settings                        : wpp / ctu=64 / min-cu-size=8 / max-tu-size=32 / tu-intra-depth=3 / tu-inter-depth=3 / me=3 / subme=4 / merange=57 / rect / amp / max-merge=4 / temporal-mvp / no-early-skip / rdpenalty=0 / no-tskip / no-tskip-fast / strong-intra-smoothing / no-lossless / no-cu-lossless / no-constrained-intra / no-fast-intra / open-gop / no-temporal-layers / interlace=0 / keyint=240 / min-keyint=24 / scenecut=40 / rc-lookahead=40 / lookahead-slices=0 / bframes=8 / bframe-bias=0 / b-adapt=2 / ref=5 / limit-refs=1 / limit-modes / weightp / weightb / aq-mode=1 / qg-size=32 / aq-strength=1.00 / cbqpoffs=0 / crqpoffs=0 / rd=6 / psy-rd=2.00 / rdoq-level=2 / psy-rdoq=1.00 / signhide / deblock / sao / no-sao-non-deblock / b-pyramid / cutree / no-intra-refresh / rc=crf / crf=19.8 / qcomp=0.60 / qpmin=0 / qpmax=51 / qpstep=4 / ipratio=1.40 / pbratio=1.30
Default                                  : Yes
Forced                                   : No
Color range                              : Limited
Color primaries                          : BT.709
Transfer characteristics                 : BT.709
Matrix coefficients                      : BT.709

Audio #1
ID                                       : 2
Format                                   :
Format/Info                              : Digital Theater Systems
Codec ID                                 : A_DTS
Duration                                 : 1 h 35 min
Bit rate mode                            : Constant
Bit rate                                 : 1 509 kb/s
Channel(s)                               : 6 channels
Channel positions                        : Front: L C R, Side: L R, LFE
Sampling rate                            : 48.0 kHz
Frame rate                               : 93.750 FPS (512 SPF)
Bit depth                                : 24 bits
Compression mode                         : Lossy
Delay relative to video                  : -83 ms
Stream size                              : 1.01 GiB (21%)
Title                                    : MVO Omikron Studio for Hurtom
Language                                 : Ukrainian
Default                                  : Yes
Forced                                   : No

Audio #2
ID                                       : 3
Format                                   : AC-3
Format/Info                              : Audio Coding 3
Codec ID                                 : A_AC3
Duration                                 : 1 h 35 min
Bit rate mode                            : Constant
Bit rate                                 : 192 kb/s
Channel(s)                               : 2 channels
Channel positions                        : Front: L R
Sampling rate                            : 48.0 kHz
Frame rate                               : 31.250 FPS (1536 SPF)
Bit depth                                : 16 bits
Compression mode                         : Lossy
Delay relative to video                  : -83 ms
Stream size                              : 132 MiB (3%)
Title                                    : ICTV
Language                                 : Ukrainian
Service kind                             : Complete Main
Default                                  : No
Forced                                   : No

Audio #3
ID                                       : 4
Format                                   : E-AC-3
Format/Info                              : Enhanced Audio Coding 3
Codec ID                                 : A_EAC3
Duration                                 : 1 h 35 min
Bit rate mode                            : Constant
Bit rate                                 : 448 kb/s
Channel(s)                               : 6 channels
Channel positions                        : Front: L C R, Side: L R, LFE
Sampling rate                            : 48.0 kHz
Frame rate                               : 187.500 FPS (256 SPF)
Compression mode                         : Lossy
Delay relative to video                  : -5 ms
Stream size                              : 307 MiB (6%)
Title                                    : English 5.1 EAC3 448kbps 48khz 16bits
Language                                 : English
Service kind                             : Complete Main
Default                                  : No
Forced                                   : No

Text
ID                                       : 5
Format                                   : UTF-8
Codec ID                                 : S_TEXT/UTF8
Codec ID/Info                            : UTF-8 Plain Text
Duration                                 : 1 h 28 min
Bit rate                                 : 40 b/s
Count of elements                        : 752
Stream size                              : 26.4 KiB (0%)
Language                                 : English
Default                                  : Yes
Forced                                   : No

Menu
00:00:00.000                             : :00:00:00.000
00:05:43.552                             : :00:05:43.552
00:08:14.661                             : :00:08:14.661
00:14:17.356                             : :00:14:17.356
00:19:42.681                             : :00:19:42.681
00:24:09.323                             : :00:24:09.323
00:27:21.056                             : :00:27:21.056
00:36:01.284                             : :00:36:01.284
00:39:49.012                             : :00:39:49.012
00:48:26.946                             : :00:48:26.946
00:54:39.651                             : :00:54:39.651
01:00:57.237                             : :01:00:57.237
01:06:30.570                             : :01:06:30.570
01:12:01.651                             : :01:12:01.651
01:20:10.264                             : :01:20:10.264
01:27:00.382                             : :01:27:00.382
Скріншоти




Джерело:
Особиста оцінка: 10 - без зайвих вагань рекомендую всім!


Авторський реліз (завантажувати можна без реєстрації)
 Трекер:    Зареєстрований   

Завантажити / скачати фільм українською



відео для новачків



 Зареєстрований:   2018-09-10 12:37
 Розмір:   4.75 GB 
 Оцінка фільму:   8.9/10 (Голосів: 7)
   
Інші релізи
   Суддя Дредд / Dredd (2012) AVC 3хUkr/Eng | Sub Eng drop_plz  6 / 0   2.45 GB   2018-10-25 09:24 
   Суддя Дредд / Dredd (2012) UHD Remux 2160p 4K HDR H.265 Ukr/Eng | Sub Eng Vladuk88  0 / 0   53.95 GB   2018-01-26 21:43 
   Суддя Дредд / Dredd (2012) 2хUkr patriot2305  3 / 0   1.58 GB   2013-10-06 17:02 
   Суддя Дредд / Dredd (2012) Remux Ukr/Eng | sub Eng Omikron  2 / 0   26.92 GB   2013-01-24 14:14 
   Суддя Дредд / Dredd (2012) 1080p Ukr/Eng | sub Eng Omikron  3 / 0   13.96 GB   2013-01-22 22:48 
   Суддя Дредд / Dredd (2012) 720p Ukr/Eng | sub Eng Omikron  11 / 0   3.6 GB   2013-01-22 01:13 
Ваш часовий пояс: GMT + 2 Години

Нова тема   Відповісти