Його собаче діло / Once Upon a Time in Venice (2017) 1080p H.265 2xUkr/Eng | Sub Eng

Нові коментарі

Нова тема   Відповісти
Автор Повідомлення
Anonymous 







2018-09-10 11:29  
Його собаче діло / Once Upon a Time in Venice (2017) 1080p H.265 2xUkr/Eng | Sub Eng

Його собаче діло / Once Upon a Time in Venice (2017) 1080p H.265 2xUkr/Eng | Sub Eng


Жанр: екшн, комедія, трилер
Країна: США
Кінокомпанія: Voltage Pictures
Режисер: Марк Каллен
Актори: Брюс Вілліс, Джейсон Момоа, Джон Ґудмен, Томас Міддлдітч, Фамке Янссен, Адам Ґолдберґ, Елізабет Рем, Стефані Сіґман, Вуд Гарріс, Емілі Робінсон

Сюжет:
Дія фільму відбуватиметься в Лос-Анджелесі. Професійне і особисте життя головного героя пішла під укіс, коли його пса Бадді викрадає група бандитів. Щоб повернути улюбленого вихованця, приватний детектив погоджується виконувати доручення злочинців. Але поки він зайнятий поверненням чотириногого друга, по його слідах йдуть вороги, серед яких двоє суворих хлопців з Самоа, підручні лихваря, якому герой заборгував гроші.

Тривалість: 01:33:53
Якість:

Відео:
кодек: H.265 (HEVC)
розмір кадру: 1920 x 800
бітрейт: 6316 кб/с
бітова глибина: 10 біт

Увага! Перед завантаженням переконайтесь, що ваш пристрій відтворення (та/або ПЗ) підтримує H.265 (HEVC)

Аудіо # 1:
мова: українська
переклад: багатоголосий закадровий
кодек: 5.1
бітрейт: 384 кб/с
Інформація про озвучення:

Переклад: Юлія Когут
Режисер дубляжу: Олександр Єфімов
Ролі озвучили: Дмитро Завадський, Юлія Перенчук, Кирило Нікітенко, Катерина Брайковська, Ярослав Чорненький, Андрій Федінчик та інші.

Фільм озвучено студією ААА-sound у 2017 році на замовлення компанії "Вольга Україна".
Аудіо # 2:
мова: українська
переклад: багатоголосий закадровий
кодек: 2.0
бітрейт: 192 кб/с

Аудіо # 3:
мова: англійська
переклад: оригінал
кодек: 5.1
бітрейт: 1510 кб/с

Субтитри # 1-3: (Full, SDH, SDH-Colored)
мова: англійська
тип: програмні (м'які)
формат: *.srt


Info
Код:
General
Unique ID                                : 204760686947313515141229556811889897868 (0x9A0B794DBE318825386E42B5E36BF18C)
Complete name                            : Once Upon a Time in Venice (2017) 1080p H.265 [2xUKR_ENG] [Hurtom].
Format                                   :
Format version                           : Version 4
File size                                : 5.51 GiB
Duration                                 : 1 h 33 min
Overall bit rate                         : 8 404 kb/s
Movie name                               : Once Upon a Time in Venice (2017)
Encoded date                             : UTC 2019-08-03 20:06:06
Writing application                      : v20.0.0 ('I Am The Sun') 64-bit
Writing library                          : libebml v1.3.5 + v1.4.8
Cover                                    : Yes
Attachments                              : cover.jpg

Video
ID                                       : 1
Format                                   : HEVC
Format/Info                              : High Efficiency Video Coding
Format profile                           : Main [email protected]@High
Codec ID                                 : V_MPEGH/ISO/HEVC
Duration                                 : 1 h 33 min
Bit rate                                 : 6 316 kb/s
Width                                    : 1 920 pixels
Height                                   : 800 pixels
Display aspect ratio                     : 2.40:1
Frame rate mode                          : Constant
Frame rate                               : 24.000 FPS
Color space                              : YUV
Chroma subsampling                       : 4:2:0
Bit depth                                : 10 bits
Bits/(Pixel*Frame)                       : 0.171
Stream size                              : 4.14 GiB (75%)
Title                                    : Once Upon a Time in Venice (2017)
Writing library                          : x265 2.0M+9-g457336f+14:[Windows][GCC 5.3.0][64 bit] Yuuki 10bit
Encoding settings                        : wpp / ctu=32 / min-cu-size=8 / max-tu-size=32 / tu-intra-depth=1 / tu-inter-depth=1 / me=3 / subme=7 / merange=24 / rect / no-amp / max-merge=3 / temporal-mvp / no-early-skip / rskip / rdpenalty=2 / no-tskip / no-tskip-fast / no-strong-intra-smoothing / no-lossless / no-cu-lossless / no-constrained-intra / no-fast-intra / no-open-gop / no-temporal-layers / interlace=0 / keyint=480 / min-keyint=1 / scenecut=40 / rc-lookahead=50 / lookahead-slices=4 / bframes=6 / bframe-bias=0 / b-adapt=2 / ref=4 / limit-refs=3 / limit-modes / weightp / weightb / aq-mode=3 / qg-size=32 / aq-strength=0.60 / cbqpoffs=-2 / crqpoffs=-2 / rd=4 / psy-rd=0.90 / rdoq-level=2 / psy-rdoq=3.00 / no-rd-refine / signhide / deblock=-1:-1 / no-sao / no-sao-non-deblock / b-pyramid / no-cutree / no-intra-refresh / rc=crf / crf=21.0000 / qcomp=0.65 / qpmin=0 / qpmax=69 / qpstep=4 / vbv-maxrate=160000 / vbv-bufsize=160000 / crf-max=0.0 / ipratio=1.40 / pbratio=1.20
Language                                 : English
Default                                  : Yes
Forced                                   : No

Audio #1
ID                                       : 2
Format                                   : AC-3
Format/Info                              : Audio Coding 3
Commercial name                          : Dolby Digital
Codec ID                                 : A_AC3
Duration                                 : 1 h 33 min
Bit rate mode                            : Constant
Bit rate                                 : 384 kb/s
Channel(s)                               : 6 channels
Channel layout                           : L R C LFE Ls Rs
Sampling rate                            : 48.0 kHz
Frame rate                               : 31.250 FPS (1536 SPF)
Bit depth                                : 16 bits
Compression mode                         : Lossy
Stream size                              : 258 MiB (5%)
Title                                    : / 5.1 Ch / 384 kbps / БЗ / iTunes
Language                                 : Ukrainian
Service kind                             : Complete Main
Default                                  : Yes
Forced                                   : Yes

Audio #2
ID                                       : 3
Format                                   : AC-3
Format/Info                              : Audio Coding 3
Commercial name                          : Dolby Digital
Codec ID                                 : A_AC3
Duration                                 : 1 h 33 min
Bit rate mode                            : Constant
Bit rate                                 : 192 kb/s
Channel(s)                               : 2 channels
Channel layout                           : L R
Sampling rate                            : 48.0 kHz
Frame rate                               : 31.250 FPS (1536 SPF)
Bit depth                                : 16 bits
Compression mode                         : Lossy
Stream size                              : 129 MiB (2%)
Title                                    : / 2.0 Ch / 192 kbps / БЗ / TET
Language                                 : Ukrainian
Service kind                             : Complete Main
Default                                  : No
Forced                                   : No

Audio #3
ID                                       : 4
Format                                   :
Format/Info                              : Digital Theater Systems
Codec ID                                 : A_DTS
Duration                                 : 1 h 33 min
Bit rate mode                            : Constant
Bit rate                                 : 1 509 kb/s
Channel(s)                               : 6 channels
Channel layout                           : C L R Ls Rs LFE
Sampling rate                            : 48.0 kHz
Frame rate                               : 93.750 FPS (512 SPF)
Bit depth                                : 24 bits
Compression mode                         : Lossy
Stream size                              : 1 013 MiB (18%)
Title                                    : / 5.1 Ch / 1509 kbps / Original
Language                                 : English
Default                                  : No
Forced                                   : No

Text #1
ID                                       : 5
Format                                   : UTF-8
Codec ID                                 : S_TEXT/UTF8
Codec ID/Info                            : UTF-8 Plain Text
Duration                                 : 1 h 30 min
Bit rate                                 : 70 b/s
Count of elements                        : 1185
Stream size                              : 46.8 KiB (0%)
Title                                    : Full
Language                                 : English
Default                                  : No
Forced                                   : No

Text #2
ID                                       : 6
Format                                   : UTF-8
Codec ID                                 : S_TEXT/UTF8
Codec ID/Info                            : UTF-8 Plain Text
Duration                                 : 1 h 32 min
Bit rate                                 : 72 b/s
Count of elements                        : 1249
Stream size                              : 48.8 KiB (0%)
Title                                    : SDH
Language                                 : English
Default                                  : No
Forced                                   : No

Text #3
ID                                       : 7
Format                                   : UTF-8
Codec ID                                 : S_TEXT/UTF8
Codec ID/Info                            : UTF-8 Plain Text
Duration                                 : 1 h 32 min
Bit rate                                 : 80 b/s
Count of elements                        : 1249
Stream size                              : 54.9 KiB (0%)
Title                                    : SDH-Colored
Language                                 : English
Default                                  : No
Forced                                   : No

Menu
00:00:00.000                             : en:Chapter 1
00:18:30.833                             : en:Chapter 2
00:31:41.875                             : en:Chapter 3
00:46:30.333                             : en:Chapter 4
01:03:02.500                             : en:Chapter 5
01:18:44.791                             : en:Chapter 6
Світлини




Джерело: &
Особиста оцінка: 0 - не дивився


 Трекер:    Зареєстрований   

Завантажити / скачати фільм українською



відео для новачків



 Зареєстрований:   2019-08-03 22:24
 Розмір:   5.51 GB 
 Оцінка фільму:   7.7/10 (Голосів: 7)
   
Anonymous 







2019-08-03 22:24  
Додав доріжку з каналу 
Ваш часовий пояс: GMT + 2 Години

Нова тема   Відповісти