Ультрафіолет / Ultraviolet (2006) 1080p H.265 Ukr/Eng | Sub Eng

Нові коментарі

Нова тема   Відповісти
Автор Повідомлення
-Star-Lord- 
Поважний учасник


З нами з: 09.08.18
Востаннє: 19.10.18
Повідомлень: 209

2018-09-10 12:22  
Ультрафіолет / Ultraviolet (2006) 1080p H.265 Ukr/Eng | Sub Eng

Ультрафіолет / Ultraviolet (2006) 1080p H.265 Ukr/Eng | Sub Eng


Жанр: фантастика, бойовик
Країна: США



Кінокомпанія: Screen Gems Inc
Режисер: Курт Віммер
Актори: Мілла Йововіч, Камерон Брайт, Нік Чинланд, Себастьен Ендрю, Іда Мартін, Вільям Фічнер

Сюжет:
Наприкінці XXI сторіччя на Землі вирує запекла війна між звичайними людьми і новим підвидом людей-вампірів. Непереможний вірус, дітище підступних спецслужб, здатний відразу наділити будь-яку людину неймовірною силою, фантастичною спритністю і незрівнянний інтелектом - ціною його швидкої і неминучої смерті. Жертви глобальної епідемії приречені на знищення, але безстрашні повстанці мають намір боротися до кінця. Серед них - відважна Вайолет. У неї є всього 36 годин на те, щоб виконати свою останню місію у лігві ворога...


Тривалість: 01:27:29
Якість:
Відео:
кодек: H.265 (HEVC)
розмір кадру: 1920 х 1040
бітрейт: 6 631 кб/с
бітова глибина: 10 біт
Увага! Перед завантаженням переконайтесь, що ваш пристрій відтворення (та/або ПЗ) підтримує H.265 (HEVC)

Аудіо # 1:
мова: українська
переклад: багатоголосий закадровий
кодек: 2.0
бітрейт: 384 кб/с

Аудіо # 2:
мова: англійська
переклад: оригінал
кодек: 5.1
бітрейт: 448 кб/с

Субтитри:
мова: англійська
тип: програмні (м'які)
формат: *.srt


Info
Код:
General
Unique ID                                : 5679447961363761813928205284674994491 (0x445D2675BFBEBB66F7767F934E5813B)
Complete name                            : F:\Video\Ultraviolet (2006) 1080p H.265 [UKR_ENG].
Format                                   :
Format version                           : Version 4 / Version 2
File size                                : 4.56 GiB
Duration                                 : 1 h 27 min
Overall bit rate                         : 7 466 kb/s
Movie name                               : Ultraviolet (2006)
Encoded date                             : UTC 2018-09-05 21:57:04
Writing application                      : v20.0.0 ('I Am The Sun') 32-bit
Writing library                          : libebml v1.3.5 + v1.4.8
Cover                                    : Yes
Attachments                              : cover.jpg

Video
ID                                       : 1
Format                                   : HEVC
Format/Info                              : High Efficiency Video Coding
Format profile                           : Main [email protected]@High
Codec ID                                 : V_MPEGH/ISO/HEVC
Duration                                 : 1 h 27 min
Bit rate                                 : 6 631 kb/s
Width                                    : 1 920 pixels
Height                                   : 1 040 pixels
Display aspect ratio                     : 1.85:1
Frame rate mode                          : Constant
Frame rate                               : 23.976 (24000/1001) FPS
Color space                              : YUV
Chroma subsampling                       : 4:2:0
Bit depth                                : 10 bits
Bits/(Pixel*Frame)                       : 0.139
Stream size                              : 4.05 GiB (89%)
Writing library                          : x265 2.8+19-bcdc610cf5f0:[Windows][GCC 7.3.0][64 bit] 10bit
Encoding settings                        : cpuid=1049583 / frame-threads=5 / numa-pools=4 / wpp / no-pmode / no-pme / no-psnr / no-ssim / log-level=3 / input-csp=1 / input-res=1920x1040 / interlace=0 / total-frames=0 / level-idc=51 / high-tier=1 / uhd-bd=0 / ref=5 / allow-non-conformance / no-repeat-headers / annexb / no-aud / no-hrd / info / hash=0 / no-temporal-layers / open-gop / min-keyint=24 / keyint=240 / gop-lookahead=0 / bframes=8 / b-adapt=2 / b-pyramid / bframe-bias=0 / rc-lookahead=40 / lookahead-slices=6 / scenecut=40 / radl=0 / no-intra-refresh / ctu=64 / min-cu-size=8 / no-rect / no-amp / max-tu-size=32 / tu-inter-depth=1 / tu-intra-depth=1 / limit-tu=0 / rdoq-level=0 / dynamic-rd=0.00 / no-ssim-rd / signhide / no-tskip / nr-intra=0 / nr-inter=0 / no-constrained-intra / strong-intra-smoothing / max-merge=2 / limit-refs=3 / no-limit-modes / me=3 / subme=7 / merange=57 / temporal-mvp / weightp / no-weightb / no-analyze-src-pics / deblock=-3:-3 / no-sao / no-sao-non-deblock / rd=3 / no-early-skip / rskip / no-fast-intra / no-tskip-fast / no-cu-lossless / no-b-intra / no-splitrd-skip / rdpenalty=0 / psy-rd=2.00 / psy-rdoq=0.00 / no-rd-refine / no-lossless / cbqpoffs=0 / crqpoffs=0 / rc=crf / crf=18.0 / qcomp=0.75 / qpstep=4 / stats-write=0 / stats-read=0 / vbv-maxrate=160000 / vbv-bufsize=160000 / vbv-init=0.9 / crf-max=0.0 / crf-min=0.0 / ipratio=1.40 / pbratio=1.30 / aq-mode=1 / aq-strength=1.00 / cutree / zone-count=0 / no-strict-cbr / qg-size=32 / no-rc-grain / qpmax=69 / qpmin=0 / no-const-vbv / sar=1 / overscan=0 / videoformat=5 / range=0 / colorprim=1 / transfer=1 / colormatrix=1 / chromaloc=0 / display-window=0 / max-cll=0,0 / min-luma=0 / max-luma=1023 / log2-max-poc-lsb=8 / vui-timing-info / vui-hrd-info / slices=1 / no-opt-qp-pps / no-opt-ref-list-length-pps / no-multi-pass-opt-rps / scenecut-bias=0.05 / no-opt-cu-delta-qp / no-aq-motion / no-hdr / no-hdr-opt / no-dhdr10-opt / no-idr-recovery-sei / analysis-reuse-level=5 / scale-factor=0 / refine-intra=0 / refine-inter=0 / refine-mv=0 / no-limit-sao / ctu-info=0 / no-lowpass-dct / refine-mv-type=0 / copy-pic=1 / max-ausize-factor=1.0 / no-dynamic-refine / no-single-sei
Language                                 : English
Default                                  : Yes
Forced                                   : No
Color range                              : Limited
Color primaries                          : BT.709
Transfer characteristics                 : BT.709
Matrix coefficients                      : BT.709

Audio #1
ID                                       : 2
Format                                   : AC-3
Format/Info                              : Audio Coding 3
Codec ID                                 : A_AC3
Duration                                 : 1 h 27 min
Bit rate mode                            : Constant
Bit rate                                 : 384 kb/s
Channel(s)                               : 2 channels
Channel positions                        : Front: L R
Sampling rate                            : 48.0 kHz
Frame rate                               : 31.250 FPS (1536 SPF)
Bit depth                                : 16 bits
Compression mode                         : Lossy
Stream size                              : 240 MiB (5%)
Title                                    : Kanal Ukraina
Language                                 : Ukrainian
Service kind                             : Complete Main
Default                                  : Yes
Forced                                   : Yes

Audio #2
ID                                       : 3
Format                                   : AC-3
Format/Info                              : Audio Coding 3
Codec ID                                 : A_AC3
Duration                                 : 1 h 27 min
Bit rate mode                            : Constant
Bit rate                                 : 448 kb/s
Channel(s)                               : 6 channels
Channel positions                        : Front: L C R, Side: L R, LFE
Sampling rate                            : 48.0 kHz
Frame rate                               : 31.250 FPS (1536 SPF)
Bit depth                                : 16 bits
Compression mode                         : Lossy
Stream size                              : 280 MiB (6%)
Title                                    : Original
Language                                 : English
Service kind                             : Complete Main
Default                                  : No
Forced                                   : No

Text
ID                                       : 4
Format                                   : UTF-8
Codec ID                                 : S_TEXT/UTF8
Codec ID/Info                            : UTF-8 Plain Text
Duration                                 : 1 h 20 min
Bit rate                                 : 35 b/s
Count of elements                        : 701
Stream size                              : 21.2 KiB (0%)
Language                                 : English
Default                                  : No
Forced                                   : No

Menu
00:00:00.000                             : :Ultraviolet
00:05:21.779                             : :Exit Strategy
00:11:09.710                             : :H.G.V.
00:17:47.483                             : :Confirming "Receipt"
00:22:13.540                             : :X3D-154
00:27:23.767                             : :"How Did She Do That?"
00:35:18.116                             : :Pursuit
00:38:53.748                             : :Curiosity
00:45:30.018                             : :Blood Chinois
00:51:40.388                             : :Ego-Maniac
00:56:23.046                             : :Six
01:00:09.105                             : :Enemies & Allies
01:04:49.886                             : :Mutual Self-Interest
01:09:10.062                             : :Memories
01:15:41.036                             : :Tainted
01:23:17.409                             : :Goodbye?
Скріншоти




Джерело:
Особиста оцінка: 0 - не дивився


 Трекер:    Зареєстрований   

Завантажити / скачати фільм українською



відео для новачків



 Зареєстрований:   2018-09-10 12:22
 Розмір:   4.56 GB 
 Оцінка фільму:   5.5/10 (Голосів: 2)
   
Інші релізи
   Ультрафіолет / Ultraviolet (2006) 720p Ukr/Eng | Sub Eng staf777  2 / 0   3.24 GB   2018-05-24 15:22 
   Ультрафіолет / Ultraviolet (2006) Кіт Баюн  4 / 0   1.42 GB   2009-03-08 15:26 
Ваш часовий пояс: GMT + 2 Години

Нова тема   Відповісти