Сторічний старий, який виліз у вікно і зник / The 100-Year-Old Man Who Climbed Out the Window and Disappeared / Hundraåringen som klev ut genom fönstret och försvann (2013) 1080p H.265 Ukr/Swe | Sub Eng

Нові коментарі

Нова тема   Відповісти
Автор Повідомлення
Anonymous 







2018-09-10 11:13  
Сторічний старий, який виліз у вікно і зник / The 100-Year-Old Man Who Climbed Out the Window and Disappeared / Hundraåringen som klev ut genom fönstret och försvann (2013) 1080p H.265 Ukr/Swe | Sub Eng

Сторічний старий, який виліз у вікно і зник / The 100-Year-Old Man Who Climbed Out the Window and Disappeared / Hundraåringen som klev ut genom fönstret och försvann (2013) 1080p H.265 Ukr/Swe | Sub Eng


Жанр: драма, комедія, пригодницький
Країна: Швеція



Кінокомпанія: Buena Vista International (Sweden), Embassy Films, Film i Väst, FLX, FLX Comedy AB, Nice Drama
Режисер: Фелікс Хернгрен
Актори: Роберт Густафссон, Авар Вікландер, Давид Віберг, Міа Скярінгер, Йенс Хульт, Біанка Крузейро, Алан Форд, Свен Льонн, Девід Шеклтон, Георг Ніколофф

Сюжет:
У день святкування свого сторіччя ювіляр вилазить через вікно будинку престарілих на газон і йде. Іде не кудись, а від чогось. Від безглуздого доживання в богадільні. В першу ж годину він свариться з бандитами і виїжджає в невідомому напрямку. Незабаром стає зрозуміло, що всі сто років його життя - суцільні пригоди. Він, начебто, завжди пливе за течією, але чомусь завжди припливає до улюблених занять - застіль і різного роду вибухів. Перезнайомившись, за різних обставин, з більшістю сильних свого часу - Франко, Труменом, Сталіним - і неабияк вплинувши на історію двадцятого століття, він залишається самим собою.


Тривалість: 01:54:48
Якість:
Відео:
кодек: H.265 (HEVC)
розмір кадру: 1920 х 808
бітрейт: 4 877 кб/с
бітова глибина: 10 біт
Увага! Перед завантаженням переконайтесь, що ваш пристрій відтворення (та/або ПЗ) підтримує H.265 (HEVC)

Аудіо # 1:
мова: українська
переклад: багатоголосий закадровий
кодек: 2.0
бітрейт: 192 кб/с

Аудіо # 2:
мова: шведська
переклад: оригінал
кодек: 5.1
бітрейт: 448 кб/с

Субтитри:
мова: англійська
тип: програмні (м'які)
формат: *.srt


Info
Код:
General
Unique ID                                : 139235970701475763403217404441970386060 (0x68BFDF5E30B622EBCD1DB6E4B488A48C)
Complete name                            : F:\Video\The 100 Year-Old Man Who Climbed Out the Window and Disappeared (2013) 1080p H.265 [UKR_SWE].
Format                                   :
Format version                           : Version 4 / Version 2
File size                                : 4.42 GiB
Duration                                 : 1 h 54 min
Overall bit rate                         : 5 511 kb/s
Movie name                               : The 100-Year-Old Man Who Climbed Out the Window and Disappeared (2013)
Encoded date                             : UTC 2018-09-09 10:06:22
Writing application                      : v20.0.0 ('I Am The Sun') 32-bit
Writing library                          : libebml v1.3.5 + v1.4.8
Cover                                    : Yes
Attachments                              : Cover.jpg

Video
ID                                       : 1
Format                                   : HEVC
Format/Info                              : High Efficiency Video Coding
Format profile                           : Main [email protected]@Main
Codec ID                                 : V_MPEGH/ISO/HEVC
Duration                                 : 1 h 54 min
Bit rate                                 : 4 877 kb/s
Width                                    : 1 920 pixels
Height                                   : 808 pixels
Display aspect ratio                     : 2.40:1
Frame rate mode                          : Constant
Frame rate                               : 23.976 (24000/1001) FPS
Color space                              : YUV
Chroma subsampling                       : 4:2:0
Bit depth                                : 10 bits
Bits/(Pixel*Frame)                       : 0.131
Stream size                              : 3.91 GiB (88%)
Writing library                          : x265 2.8+66-88ee12651e30:[Windows][MSVC 1915][64 bit] 10bit
Encoding settings                        : cpuid=1111039 / frame-threads=2 / numa-pools=4 / wpp / no-pmode / no-pme / no-psnr / no-ssim / log-level=2 / input-csp=1 / input-res=1920x808 / interlace=0 / total-frames=164966 / level-idc=0 / high-tier=1 / uhd-bd=0 / ref=4 / no-allow-non-conformance / no-repeat-headers / annexb / no-aud / no-hrd / info / hash=0 / no-temporal-layers / open-gop / min-keyint=23 / keyint=250 / gop-lookahead=0 / bframes=4 / b-adapt=2 / b-pyramid / bframe-bias=0 / rc-lookahead=25 / lookahead-slices=4 / scenecut=40 / radl=0 / no-intra-refresh / ctu=64 / min-cu-size=8 / no-rect / no-amp / max-tu-size=32 / tu-inter-depth=1 / tu-intra-depth=1 / limit-tu=0 / rdoq-level=2 / dynamic-rd=0.00 / no-ssim-rd / signhide / no-tskip / nr-intra=0 / nr-inter=0 / no-constrained-intra / no-strong-intra-smoothing / max-merge=3 / limit-refs=3 / limit-modes / me=3 / subme=3 / merange=57 / temporal-mvp / weightp / no-weightb / no-analyze-src-pics / deblock=0:0 / no-sao / no-sao-non-deblock / rd=4 / no-early-skip / no-rskip / no-fast-intra / no-tskip-fast / no-cu-lossless / no-b-intra / no-splitrd-skip / rdpenalty=0 / psy-rd=2.00 / psy-rdoq=1.00 / no-rd-refine / no-lossless / cbqpoffs=0 / crqpoffs=0 / rc=abr / bitrate=4880 / qcomp=0.60 / qpstep=4 / stats-write=0 / stats-read=2 / cplxblur=20.0 / qblur=0.5 / ipratio=1.40 / pbratio=1.30 / aq-mode=3 / aq-strength=1.00 / cutree / zone-count=0 / no-strict-cbr / qg-size=32 / no-rc-grain / qpmax=69 / qpmin=0 / no-const-vbv / sar=0 / overscan=0 / videoformat=5 / range=0 / colorprim=2 / transfer=2 / colormatrix=2 / chromaloc=0 / display-window=0 / max-cll=0,0 / min-luma=0 / max-luma=1023 / log2-max-poc-lsb=8 / vui-timing-info / vui-hrd-info / slices=1 / no-opt-qp-pps / no-opt-ref-list-length-pps / no-multi-pass-opt-rps / scenecut-bias=0.05 / no-opt-cu-delta-qp / no-aq-motion / no-hdr / no-hdr-opt / no-dhdr10-opt / no-idr-recovery-sei / analysis-reuse-level=5 / scale-factor=0 / refine-intra=0 / refine-inter=0 / refine-mv=0 / no-limit-sao / ctu-info=0 / no-lowpass-dct / refine-mv-type=0 / copy-pic=1 / max-ausize-factor=1.0 / no-dynamic-refine / no-single-sei
Default                                  : Yes
Forced                                   : No

Audio #1
ID                                       : 2
Format                                   : AC-3
Format/Info                              : Audio Coding 3
Codec ID                                 : A_AC3
Duration                                 : 1 h 54 min
Bit rate mode                            : Constant
Bit rate                                 : 192 kb/s
Channel(s)                               : 2 channels
Channel positions                        : Front: L R
Sampling rate                            : 48.0 kHz
Frame rate                               : 31.250 FPS (1536 SPF)
Bit depth                                : 16 bits
Compression mode                         : Lossy
Delay relative to video                  : 30 s 500 ms
Stream size                              : 157 MiB (3%)
Title                                    : Paramount Comedy
Language                                 : Ukrainian
Service kind                             : Complete Main
Default                                  : Yes
Forced                                   : Yes

Audio #2
ID                                       : 3
Format                                   : AC-3
Format/Info                              : Audio Coding 3
Codec ID                                 : A_AC3
Duration                                 : 1 h 54 min
Bit rate mode                            : Constant
Bit rate                                 : 448 kb/s
Channel(s)                               : 6 channels
Channel positions                        : Front: L C R, Side: L R, LFE
Sampling rate                            : 48.0 kHz
Frame rate                               : 31.250 FPS (1536 SPF)
Bit depth                                : 16 bits
Compression mode                         : Lossy
Delay relative to video                  : 30 s 500 ms
Stream size                              : 366 MiB (8%)
Title                                    : Original
Language                                 : Swedish
Service kind                             : Complete Main
Default                                  : No
Forced                                   : No

Text
ID                                       : 4
Format                                   : UTF-8
Codec ID                                 : S_TEXT/UTF8
Codec ID/Info                            : UTF-8 Plain Text
Duration                                 : 1 h 47 min
Bit rate                                 : 56 b/s
Count of elements                        : 1124
Stream size                              : 44.3 KiB (0%)
Language                                 : English
Default                                  : No
Forced                                   : No

Menu
00:00:00.000                             : en:Chapter 01
00:05:44.761                             : en:Chapter 02
00:11:53.796                             : en:Chapter 03
00:19:27.291                             : en:Chapter 04
00:25:44.668                             : en:Chapter 05
00:31:50.366                             : en:Chapter 06
00:38:08.661                             : en:Chapter 07
00:46:07.723                             : en:Chapter 08
00:55:36.499                             : en:Chapter 09
01:04:02.797                             : en:Chapter 10
01:12:01.942                             : en:Chapter 11
01:19:58.502                             : en:Chapter 12
01:27:48.096                             : en:Chapter 13
01:32:36.300                             : en:Chapter 14
01:36:27.156                             : en:Chapter 15
01:43:11.602                             : en:Chapter 16
01:49:10.961                             : en:Chapter 17
Скріншоти




Джерело:
Особиста оцінка: 0 - не дивився


 Трекер:    Зареєстрований   

Завантажити / скачати фільм українською



відео для новачків



 Зареєстрований:   2018-09-10 11:13
 Розмір:   4.42 GB 
 Оцінка фільму:   9/10 (Голосів: 1)
   
Ваш часовий пояс: GMT + 2 Години

Нова тема   Відповісти