На межі майбутнього / Edge of Tomorrow (2014) 1080p H.265 Ukr/Eng | Sub Ukr/Eng

Нові коментарі

Нова тема   Відповісти
Автор Повідомлення
-Star-Lord- 
Поважний учасник


З нами з: 09.08.18
Востаннє: 19.10.18
Повідомлень: 210

2018-09-10 12:05  
На межі майбутнього / Edge of Tomorrow (2014) 1080p H.265 Ukr/Eng | Sub Ukr/Eng

На межі майбутнього / Edge of Tomorrow (2014) 1080p H.265 Ukr/Eng | Sub Ukr/Eng


Жанр: екшн, фантастика
Країна: США, Австралія



Кінокомпанія: Warner Bros., Village Roadshow Pictures, 3 Arts Entertainment
Режисер: Даґ Лайман
Актори: Том Круз, Емілі Блант, Брендан Ґлісон, Білл Пекстон, Джонас Армстронґ, Тоні Вей, Кік Ґаррі, Франц Драмех, Драґомир Мрсіч, Шарлотта Райлі

Сюжет:
В недалекому майбутньому раса інопланетян вторгається на Землю. Ніяка армія в світі не може протистояти їм. Майор Вільям Кейдж вмирає в бою, але трапляється неможливе - він виявляється у часовій петлі. Раз за разом він потрапляє в один і той же бій, бореться і вмирає... знову і знову. І кожний повторюваний бій наближає його до розгадки того, як перемогти ворога.


Тривалість: 01:53:27
Якість:
Відео:
кодек: H.265 (HEVC)
розмір кадру: 1920 х 800
бітрейт: 4 126 кб/с
бітова глибина: 10 біт
Увага! Перед завантаженням переконайтесь, що ваш пристрій відтворення (та/або ПЗ) підтримує H.265 (HEVC)

Аудіо # 1:
мова: українська
переклад: професійний дубльований
кодек: 5.1
бітрейт: 640 кб/с

Аудіо # 2:
мова: англійська
переклад: оригінал
кодек: 5.1
бітрейт: 448 кб/с

Субтитри # 1-2:
мова: українська (Forced, Full)
тип: програмні (м'які)
формат: *.srt

Субтитри # 3-5:
мова: англійська (Full, SDH, SDH-Colored)
тип: програмні (м'які)
формат: *.srt


Info
Код:
General
Unique ID                                : 147640389308935255022387834506551849855 (0x6F12813284D48AE3893BDE4855A1737F)
Complete name                            : F:\Video\Edge of Tomorrow (2014) 1080p H.265 [UKR_ENG].
Format                                   :
Format version                           : Version 4 / Version 2
File size                                : 4.14 GiB
Duration                                 : 1 h 53 min
Overall bit rate                         : 5 217 kb/s
Movie name                               : Edge of Tomorrow (2014)
Encoded date                             : UTC 2018-09-06 13:46:06
Writing application                      : v20.0.0 ('I Am The Sun') 32-bit
Writing library                          : libebml v1.3.5 + v1.4.8
Cover                                    : Yes
Attachments                              : cover.jpg

Video
ID                                       : 1
Format                                   : HEVC
Format/Info                              : High Efficiency Video Coding
Format profile                           : Main [email protected]@Main
Codec ID                                 : V_MPEGH/ISO/HEVC
Duration                                 : 1 h 53 min
Bit rate                                 : 4 126 kb/s
Width                                    : 1 920 pixels
Height                                   : 800 pixels
Display aspect ratio                     : 2.40:1
Frame rate mode                          : Constant
Frame rate                               : 23.976 (24000/1001) FPS
Color space                              : YUV
Chroma subsampling                       : 4:2:0
Bit depth                                : 10 bits
Bits/(Pixel*Frame)                       : 0.112
Stream size                              : 3.27 GiB (79%)
Writing library                          : x265 1.9:[Windows][GCC 4.9.2][64 bit] 10bit
Encoding settings                        : wpp / ctu=64 / min-cu-size=8 / max-tu-size=32 / tu-intra-depth=3 / tu-inter-depth=3 / me=3 / subme=4 / merange=57 / rect / amp / max-merge=4 / temporal-mvp / no-early-skip / rdpenalty=0 / no-tskip / no-tskip-fast / strong-intra-smoothing / no-lossless / no-cu-lossless / no-constrained-intra / no-fast-intra / open-gop / no-temporal-layers / interlace=0 / keyint=240 / min-keyint=24 / scenecut=40 / rc-lookahead=40 / lookahead-slices=0 / bframes=8 / bframe-bias=0 / b-adapt=2 / ref=5 / limit-refs=1 / limit-modes / weightp / weightb / aq-mode=1 / qg-size=32 / aq-strength=1.00 / cbqpoffs=0 / crqpoffs=0 / rd=6 / psy-rd=2.00 / rdoq-level=2 / psy-rdoq=1.00 / signhide / deblock / sao / no-sao-non-deblock / b-pyramid / cutree / no-intra-refresh / rc=crf / crf=18.6 / qcomp=0.60 / qpmin=0 / qpmax=51 / qpstep=4 / ipratio=1.40 / pbratio=1.30
Default                                  : Yes
Forced                                   : No
Color range                              : Limited
Color primaries                          : BT.709
Transfer characteristics                 : BT.709
Matrix coefficients                      : BT.709

Audio #1
ID                                       : 2
Format                                   : AC-3
Format/Info                              : Audio Coding 3
Codec ID                                 : A_AC3
Duration                                 : 1 h 53 min
Bit rate mode                            : Constant
Bit rate                                 : 640 kb/s
Channel(s)                               : 6 channels
Channel positions                        : Front: L C R, Side: L R, LFE
Sampling rate                            : 48.0 kHz
Frame rate                               : 31.250 FPS (1536 SPF)
Bit depth                                : 16 bits
Compression mode                         : Lossy
Delay relative to video                  : -83 ms
Stream size                              : 520 MiB (12%)
Title                                    : 5.1 @ 640 kbps
Language                                 : Ukrainian
Service kind                             : Complete Main
Default                                  : Yes
Forced                                   : Yes

Audio #2
ID                                       : 3
Format                                   : AC-3
Format/Info                              : Audio Coding 3
Codec ID                                 : A_AC3
Duration                                 : 1 h 53 min
Bit rate mode                            : Constant
Bit rate                                 : 448 kb/s
Channel(s)                               : 6 channels
Channel positions                        : Front: L C R, Side: L R, LFE
Sampling rate                            : 48.0 kHz
Frame rate                               : 31.250 FPS (1536 SPF)
Bit depth                                : 16 bits
Compression mode                         : Lossy
Delay relative to video                  : -83 ms
Stream size                              : 364 MiB (9%)
Title                                    : 5.1 @ 448 kbps
Language                                 : English
Service kind                             : Complete Main
Default                                  : No
Forced                                   : No

Text #1
ID                                       : 4
Format                                   : UTF-8
Codec ID                                 : S_TEXT/UTF8
Codec ID/Info                            : UTF-8 Plain Text
Duration                                 : 1 h 51 min
Bit rate                                 : 0 b/s
Count of elements                        : 20
Stream size                              : 824 Bytes (0%)
Title                                    : Forced
Language                                 : Ukrainian
Default                                  : Yes
Forced                                   : Yes

Text #2
ID                                       : 5
Format                                   : UTF-8
Codec ID                                 : S_TEXT/UTF8
Codec ID/Info                            : UTF-8 Plain Text
Duration                                 : 1 h 45 min
Bit rate                                 : 88 b/s
Count of elements                        : 1367
Stream size                              : 68.9 KiB (0%)
Title                                    : Full
Language                                 : Ukrainian
Default                                  : No
Forced                                   : No

Text #3
ID                                       : 6
Format                                   : UTF-8
Codec ID                                 : S_TEXT/UTF8
Codec ID/Info                            : UTF-8 Plain Text
Duration                                 : 1 h 45 min
Bit rate                                 : 79 b/s
Count of elements                        : 1608
Stream size                              : 61.6 KiB (0%)
Title                                    : Full
Language                                 : English
Default                                  : No
Forced                                   : No

Text #4
ID                                       : 7
Format                                   : UTF-8
Codec ID                                 : S_TEXT/UTF8
Codec ID/Info                            : UTF-8 Plain Text
Duration                                 : 1 h 53 min
Bit rate                                 : 54 b/s
Count of elements                        : 1513
Stream size                              : 45.3 KiB (0%)
Language                                 : English
Default                                  : No
Forced                                   : No

Text #5
ID                                       : 8
Format                                   : UTF-8
Codec ID                                 : S_TEXT/UTF8
Codec ID/Info                            : UTF-8 Plain Text
Duration                                 : 1 h 53 min
Bit rate                                 : 65 b/s
Count of elements                        : 1513
Stream size                              : 54.0 KiB (0%)
Title                                    : SDH-Colored
Language                                 : English
Default                                  : No
Forced                                   : No

Menu
00:00:00.000                             : en:00:00:00.000
00:10:28.169                             : en:00:10:28.169
00:17:39.100                             : en:00:17:39.100
00:24:50.197                             : en:00:24:50.197
00:35:57.947                             : en:00:35:57.947
00:46:27.284                             : en:00:46:27.284
00:54:34.771                             : en:00:54:34.771
01:04:59.562                             : en:01:04:59.562
01:12:53.077                             : en:01:12:53.077
01:23:08.901                             : en:01:23:08.901
01:32:34.132                             : en:01:32:34.132
01:42:53.584                             : en:01:42:53.584
01:45:46.215                             : en:01:45:46.215
Скріншоти




Джерело:
Особиста оцінка: 10 - без зайвих вагань рекомендую всім!


 Трекер:    Зареєстрований   

Завантажити / скачати фільм українською



відео для новачків



 Зареєстрований:   2018-09-10 12:05
 Розмір:   4.14 GB 
 Оцінка фільму:   9.2/10 (Голосів: 6)
   
Інші релізи
   На межі майбутнього / Edge Of Tomorrow (2014) 1080p (h265) Ukr/Eng | Sub Ukr/Eng Leonb28  3 / 0   6.77 GB   2015-02-18 20:39 
   На межі майбутнього / Edge of Tomorrow (2014) 1080p 3D [Half SideBySide] Ukr/Eng | Sub Ukr/Eng GEORGKys  2 / 0   11.05 GB   2014-12-27 23:45 
   На межі майбутнього / Edge of Tomorrow (2014) DmitryA  1 / 0   995 MB   2014-11-11 20:55 
   На межі майбутнього / Edge of Tomorrow (2014) DVD9 Eng/Cze/Rus/Ukr| Sub Multi yurka30  1 / 0   6.29 GB   2014-10-08 15:16 
   На межі майбутнього / Edge of Tomorrow (2014) 720p-mini (60fps) Drool  7 / 0   4.26 GB   2014-10-03 13:41 
   На межі майбутнього / Edge of Tomorrow (2014) AVC Ukr/Eng | Sub Ukr/Eng omm  22 / 0   2.69 GB   2014-09-28 18:02 
   На межі майбутнього / Edge of Tomorrow (2014) Blu-ray CEE Multi | Sub Multi smak2001  3 / 0   41.28 GB   2014-09-28 01:31 
   На межі майбутнього / Edge of Tomorrow (2014) 1080p Ukr/Eng | Sub Ukr/Eng 11FrYkT  15 / 0   10.01 GB   2014-09-27 16:41 
   На межі майбутнього / Edge of Tomorrow (2014) 720p Ukr/Eng | Sub Ukr/Eng 11FrYkT  11 / 0   4.65 GB   2014-09-27 13:36 
   На межі майбутнього / Edge of Tomorrow (2014) patriot2305  24 / 0   1.45 GB   2014-09-27 11:43 
   На межі майбутнього / Edge of Tomorrow (2014) Ukr/Eng | Sub Ukr/Eng Gelios  5 / 0   2.18 GB   2014-09-27 07:05 
0mage0 
VIP


З нами з: 06.10.15
Востаннє: 20.10.18
Повідомлень: 368

2018-10-08 19:03  
Дивитися можна. Спочатку здається, що повна маячня, на середині розумієш в чому сенс. Не те, щоб ідея стала менш маячною, але якась логіка присутня. Ну і ці темні сцени в кінці поганенькі, взагалі нічого не видно, що там відбувається.
Зрештою чувак отямлюється в гелікоптері, в той самий момент, як на самому початку фільму, але Омега вже знищена, хоча знищили вони її після цього :/ Якось не сходиться. Ну і коли генерал їм дав цей пристрій для пошуку Омеги, він же добровільно їм його дав, а на виході їх почали обстрілювати свої ж вояки. Що за чортівня?

Ваш часовий пояс: GMT + 2 Години

Нова тема   Відповісти