Пробудження / Passengers (2016) 1080p H.265 Ukr/Eng | Sub 2xUkr/Eng

Нові коментарі

Нова тема   Відповісти
Автор Повідомлення
Anonymous 







2018-09-10 11:55  
Пробудження / Passengers (2016) 1080p H.265 Ukr/Eng | Sub 2xUkr/Eng

Пробудження / Passengers (2016) 1080p H.265 Ukr/Eng | Sub 2xUkr/Eng


Жанр: пригодницький, драма, романтичний
Країна: США
Кінокомпанія: Columbia Pictures, LStar Capital, Village Roadshow Pictures
Режисер: Мортен Тільдум
Актори: Дженніфер Лоуренс, Кріс Пратт, Майкл Шин, Енді Ґарсіа, Лоуренс Фішберн, Джеймі Сорічеллі, Кімберлі Баттіста, Аврора Перріно та інші

Сюжет:
Космічний корабель з п'ятьма тисячами пасажирів на борту, занурених на час польоту в штучний сон, тримає курс на планету, яка стане для них новим будинком. Все йде за планом, але через збій системи двоє пасажирів несподівано прокидаються і розуміють, що до кінцевого пункту подорожі - 90 років шляху, і їм судилося залишок життя провести удвох в розкішних інтер'єрах корабля, оснащеного за останнім словом техніки. Поступово Джима і Аврору починає непереборно тягнути один до одного, але корабель потрапляє в біду, і тепер в їхніх руках - життя і доля всіх мешканців корабля.

Тривалість: 01:56:10
Якість:

Відео:
кодек: H.265 (HEVC)
розмір кадру: 1920 x 804
бітрейт: 4 133 кб/с
бітова глибина: 10 біт

Увага! Перед завантаженням переконайтесь, що ваш пристрій відтворення (та/або ПЗ) підтримує H.265 (HEVC)

Аудіо # 1:
мова: українська
переклад: професійний дубльований
кодек: AC-3 5.1
бітрейт: 640 кб/с

Аудіо # 2:
мова: англійська
переклад: оригінал
кодек: 5.1
бітрейт: 1510 кб/с

Субтитри # 1-3: (Forced, Full from iTunes, Full from Netflix)
мова: українська
тип: програмні (м'які)
формат: *.srt

Субтитри # 4-6: (Full, SDH, SDH-Colored)
мова: англійська
тип: програмні (м'які)
формат: *.srt


Info
Код:
General
Unique ID                                : 278700035615436735739903249440229707157 (0xD1ABACA6176F96A15B2B99113B824D95)
Complete name                            : Passengers (2016) 1080p H.265 [UKR_ENG] [Hurtom].
Format                                   :
Format version                           : Version 4
File size                                : 5.10 GiB
Duration                                 : 1 h 56 min
Overall bit rate                         : 6 285 kb/s
Movie name                               : Пробудження / Passengers (2016)
Encoded date                             : UTC 2020-09-22 20:23:34
Writing application                      : v20.0.0 ('I Am The Sun') 64-bit
Writing library                          : libebml v1.3.5 + v1.4.8
Cover                                    : Yes
Attachments                              : Cover.jpg

Video
ID                                       : 1
Format                                   : HEVC
Format/Info                              : High Efficiency Video Coding
Format profile                           : Main [email protected]@High
Codec ID                                 : V_MPEGH/ISO/HEVC
Duration                                 : 1 h 56 min
Bit rate                                 : 4 133 kb/s
Width                                    : 1 920 pixels
Height                                   : 804 pixels
Display aspect ratio                     : 2.40:1
Frame rate mode                          : Constant
Frame rate                               : 23.976 (23976/1000) FPS
Original frame rate                      : 23.976 (24000/1001) FPS
Color space                              : YUV
Chroma subsampling                       : 4:2:0
Bit depth                                : 10 bits
Bits/(Pixel*Frame)                       : 0.112
Stream size                              : 3.35 GiB (66%)
Title                                    : Пробудження / Passengers (2016)
Writing library                          : x265 3.1.2+1-76650bab70f9:[Windows][MSVC 1922][64 bit] 10bit
Encoding settings                        : cpuid=1111039 / frame-threads=3 / numa-pools=12 / wpp / no-pmode / no-pme / no-psnr / no-ssim / log-level=2 / input-csp=1 / input-res=1920x804 / interlace=0 / total-frames=157465 / level-idc=41 / high-tier=1 / uhd-bd=0 / ref=5 / no-allow-non-conformance / no-repeat-headers / annexb / no-aud / no-hrd / info / hash=0 / no-temporal-layers / open-gop / min-keyint=23 / keyint=240 / gop-lookahead=0 / bframes=12 / b-adapt=2 / b-pyramid / bframe-bias=0 / rc-lookahead=60 / lookahead-slices=4 / scenecut=40 / radl=0 / no-splice / no-intra-refresh / ctu=32 / min-cu-size=8 / rect / amp / max-tu-size=32 / tu-inter-depth=4 / tu-intra-depth=4 / limit-tu=1 / rdoq-level=2 / dynamic-rd=0.00 / no-ssim-rd / signhide / no-tskip / nr-intra=0 / nr-inter=0 / no-constrained-intra / no-strong-intra-smoothing / max-merge=4 / limit-refs=2 / limit-modes / me=3 / subme=7 / merange=57 / temporal-mvp / weightp / weightb / no-analyze-src-pics / deblock=-3:-3 / no-sao / no-sao-non-deblock / rd=6 / no-early-skip / no-rskip / no-fast-intra / no-tskip-fast / no-cu-lossless / no-b-intra / no-splitrd-skip / rdpenalty=0 / psy-rd=2.00 / psy-rdoq=1.00 / no-rd-refine / no-lossless / cbqpoffs=0 / crqpoffs=0 / rc=crf / crf=20.0 / qcomp=0.65 / qpstep=4 / stats-write=0 / stats-read=0 / vbv-maxrate=50000 / vbv-bufsize=50000 / vbv-init=0.9 / crf-max=0.0 / crf-min=0.0 / ipratio=1.40 / pbratio=1.30 / aq-mode=1 / aq-strength=1.00 / no-cutree / zone-count=0 / no-strict-cbr / qg-size=32 / no-rc-grain / qpmax=69 / qpmin=0 / no-const-vbv / sar=1 / overscan=0 / videoformat=5 / range=0 / colorprim=1 / transfer=1 / colormatrix=1 / chromaloc=0 / display-window=0cll=0,0 / min-luma=0 / max-luma=1023 / log2-max-poc-lsb=8 / vui-timing-info / vui-hrd-info / slices=1 / no-opt-qp-pps / no-opt-ref-list-length-pps / no-multi-pass-opt-rps / scenecut-bias=0.05 / no-opt-cu-delta-qp / no-aq-motion / no-hdr / no-hdr-opt / no-dhdr10-opt / no-idr-recovery-sei / analysis-reuse-level=5 / scale-factor=0 / refine-intra=0 / refine-inter=0 / refine-mv=0 / refine-ctu-distortion=0 / no-limit-sao / ctu-info=0 / no-lowpass-dct / refine-analysis-type=0 / copy-pic=1 / max-ausize-factor=1.0 / no-dynamic-refine / no-single-sei / no-hevc-aq / no-svt / no-field / qp-adaptation-range=1.00
Default                                  : Yes
Forced                                   : No
Color range                              : Limited
Color primaries                          : BT.709
Transfer characteristics                 : BT.709
Matrix coefficients                      : BT.709

Audio #1
ID                                       : 2
Format                                   : AC-3
Format/Info                              : Audio Coding 3
Commercial name                          : Dolby Digital
Codec ID                                 : A_AC3
Duration                                 : 1 h 56 min
Bit rate mode                            : Constant
Bit rate                                 : 640 kb/s
Channel(s)                               : 6 channels
Channel layout                           : L R C LFE Ls Rs
Sampling rate                            : 48.0 kHz
Frame rate                               : 31.250 FPS (1536 SPF)
Compression mode                         : Lossy
Stream size                              : 532 MiB (10%)
Title                                    : / 5.1 Ch / 640 kbps / DUB / Blu-Ray
Language                                 : Ukrainian
Service kind                             : Complete Main
Default                                  : Yes
Forced                                   : Yes

Audio #2
ID                                       : 3
Format                                   :
Format/Info                              : Digital Theater Systems
Codec ID                                 : A_DTS
Duration                                 : 1 h 56 min
Bit rate mode                            : Constant
Bit rate                                 : 1 509 kb/s
Channel(s)                               : 6 channels
Channel layout                           : C L R Ls Rs LFE
Sampling rate                            : 48.0 kHz
Frame rate                               : 93.750 FPS (512 SPF)
Bit depth                                : 16 bits
Compression mode                         : Lossy
Stream size                              : 1.22 GiB (24%)
Title                                    : / 5.1 Ch / 1509 kbps / Original
Language                                 : English
Default                                  : No
Forced                                   : No

Text #1
ID                                       : 4
Format                                   : UTF-8
Codec ID                                 : S_TEXT/UTF8
Codec ID/Info                            : UTF-8 Plain Text
Duration                                 : 1 h 54 min
Bit rate                                 : 1 b/s
Count of elements                        : 20
Stream size                              : 880 Bytes (0%)
Title                                    : Forced
Language                                 : Ukrainian
Default                                  : Yes
Forced                                   : Yes

Text #2
ID                                       : 5
Format                                   : UTF-8
Codec ID                                 : S_TEXT/UTF8
Codec ID/Info                            : UTF-8 Plain Text
Duration                                 : 1 h 54 min
Bit rate                                 : 75 b/s
Count of elements                        : 1282
Stream size                              : 63.3 KiB (0%)
Title                                    : Full from iTunes
Language                                 : Ukrainian
Default                                  : No
Forced                                   : No

Text #3
ID                                       : 6
Format                                   : UTF-8
Codec ID                                 : S_TEXT/UTF8
Codec ID/Info                            : UTF-8 Plain Text
Duration                                 : 1 h 54 min
Bit rate                                 : 71 b/s
Count of elements                        : 1276
Stream size                              : 59.8 KiB (0%)
Title                                    : Full from Netflix
Language                                 : Ukrainian
Default                                  : No
Forced                                   : No

Text #4
ID                                       : 7
Format                                   : UTF-8
Codec ID                                 : S_TEXT/UTF8
Codec ID/Info                            : UTF-8 Plain Text
Duration                                 : 1 h 45 min
Bit rate                                 : 49 b/s
Count of elements                        : 1280
Stream size                              : 37.9 KiB (0%)
Title                                    : Full
Language                                 : English
Default                                  : No
Forced                                   : No

Text #5
ID                                       : 8
Format                                   : UTF-8
Codec ID                                 : S_TEXT/UTF8
Codec ID/Info                            : UTF-8 Plain Text
Duration                                 : 1 h 48 min
Bit rate                                 : 57 b/s
Count of elements                        : 1619
Stream size                              : 45.3 KiB (0%)
Title                                    : SDH
Language                                 : English
Default                                  : No
Forced                                   : No

Text #6
ID                                       : 9
Format                                   : UTF-8
Codec ID                                 : S_TEXT/UTF8
Codec ID/Info                            : UTF-8 Plain Text
Duration                                 : 1 h 48 min
Bit rate                                 : 78 b/s
Count of elements                        : 1620
Stream size                              : 62.7 KiB (0%)
Title                                    : SDH-Colored
Language                                 : English
Default                                  : No
Forced                                   : No

Menu
00:00:00.000                             : en:The Avalon
00:07:04.674                             : en:Jim Preston
00:14:38.210                             : en:Completely, Utterly Screwed
00:20:33.649                             : en:Contemplates Suicide
00:25:06.338                             : en:Aurora Lane
00:30:30.662                             : en:The First Week
00:40:47.987                             : en:An Interview and a Date
00:50:23.020                             : en:Growing Closer
00:57:28.945                             : en:No Secrets
01:02:54.812                             : en:Furious
01:10:47.159                             : en:Gus Mancuso
01:17:48.664                             : en:Escalating Malfunctions
01:25:17.028                             : en:Fusion Reactor
01:31:45.041                             : en:Hold the Door
01:37:53.242                             : en:Untethered
01:42:18.549                             : en:Hell of a Life
01:46:37.349                             : en:88 Years Later
01:47:35.561                             : en:End Credits
Світлини




Джерело: &
Особиста оцінка: 10 - без зайвих вагань рекомендую всім!

Подяка пану leicheman за надані укр. субтитри.


 Трекер:    Зареєстрований   

Завантажити / скачати фільм українською



відео для новачків



 Зареєстрований:   2020-09-23 01:30
 Розмір:   5.1 GB 
 Оцінка фільму:   9.5/10 (Голосів: 32)
   
uaxpasha 
VIP


З нами з: 05.08.12
Востаннє: 01.10.20
Повідомлень: 351

2018-09-10 23:34  
Дуже слабкий фільм. Не вартий уваги, хоча це можна виправити починаючи дивитись з середини.

Але дивився якесь ессе на ютубі про нього, і там було припущення що якби фільм почався з того моменту коли
Дженніфер Лоуренс виходить зі сну, і нічого не розуміє разом з глядачами, було б цікавіше дивитись і на Крусі Пратта, який здавався якимось підозрілим (фільм був би менш комедійним, а більш трилерним), а посеред їх суперечки показати флешбек як на початку Крісові було скучно самому.

robofob 
Частий відвідувач


З нами з: 05.05.16
Востаннє: 26.09.20
Повідомлень: 47

2018-09-11 07:47  
Вони навіть упевнені, що вони актори.
Anonymous 







2019-11-09 21:29  
Якісніший відеоряд.
pintg 
Поважний учасник


З нами з: 14.04.16
Востаннє: 30.09.20
Повідомлень: 189

2019-11-11 15:30  
Панове uaxpasha та robofob, може це і не картина на усі часи, але особисто мені здалося, що усе не так погано, як ви описуєте.
jktu000000 
Новенький


З нами з: 09.07.19
Востаннє: 24.09.20
Повідомлень: 7

2020-04-24 22:21  
Один з улюблених фільмів
Muraat 
Новенький


З нами з: 19.01.10
Востаннє: 23.08.20
Повідомлень: 6

2020-07-21 01:09  
Один з кращих фільмів, хто не дивився рекомендую.
І не слухайте всіляких"експертів".

ka13 
Новенький


З нами з: 23.09.16
Востаннє: 30.09.20
Повідомлень: 5

2020-09-17 23:19  
Відправили дітей до бабулі та із задоволенням під суші з шампанським подивились цей приємний фільм. Вважаю, негативні коментарі писали ті, хто "дивився" фільм методом перемотки.
Anonymous 







2020-09-23 01:30  
Додано саби з Нетфлікса.
Ваш часовий пояс: GMT + 2 Години

Нова тема   Відповісти