Пробудження / Passengers (2016) 1080p H.265 Ukr/Eng | Sub Ukr/Eng

Нові коментарі

Нова тема   Відповісти
Автор Повідомлення
-Star-Lord- 
VIP


З нами з: 09.08.18
Востаннє: 19.12.18
Повідомлень: 355

2018-09-10 10:55  
Пробудження / Passengers (2016) 1080p H.265 Ukr/Eng | Sub Ukr/Eng

Пробудження / Passengers (2016) 1080p H.265 Ukr/Eng | Sub Ukr/Eng


Жанр: пригодницький, драма, романтичний
Країна: США



Кінокомпанія: Columbia Pictures, LStar Capital, Village Roadshow Pictures
Режисер: Мортен Тільдум
Актори: Дженніфер Лоуренс, Кріс Пратт, Майкл Шин, Енді Ґарсіа, Лоуренс Фішберн, Джеймі Сорічеллі, Кімберлі Баттіста, Аврора Перріно та інші

Сюжет:
Космічний корабель з п'ятьма тисячами пасажирів на борту, занурених на час польоту в штучний сон, тримає курс на планету, яка стане для них новим будинком. Все йде за планом, але через збій системи двоє пасажирів несподівано прокидаються і розуміють, що до кінцевого пункту подорожі - 90 років шляху, і їм судилося залишок життя провести удвох в розкішних інтер'єрах корабля, оснащеного за останнім словом техніки. Поступово Джима і Аврору починає непереборно тягнути один до одного, але корабель потрапляє в біду, і тепер в їхніх руках - життя і доля всіх мешканців корабля.


Тривалість: 01:56:10
Якість:
Відео:
кодек: H.265 (HEVC)
розмір кадру: 1920 х 802
бітрейт: 3 774 кб/с
бітова глибина: 10 біт
Увага! Перед завантаженням переконайтесь, що ваш пристрій відтворення (та/або ПЗ) підтримує H.265 (HEVC)

Аудіо # 1:
мова: українська
переклад: професійний дубльований
кодек: 5.1
бітрейт: 640 кб/с

Аудіо # 2:
мова: англійська
переклад: оригінал
кодек: 5.1
бітрейт: 448 кб/с

Субтитри # 1-2:
мова: українська (Forced, Full)
тип: програмні (м'які)
формат: *.srt

Субтитри #3-4:
мова: англійська (Full, SDH)
тип: програмні (м'які)
формат: *.srt


Info
Код:
General
Unique ID                                : 232456113783041819035122309364525931580 (0xAEE16B457D20D4C9ED08D35DCED19C3C)
Complete name                            : F:\Video\Passengers (2016) 1080p H.265 [UKR_ENG].
Format                                   :
Format version                           : Version 4 / Version 2
File size                                : 3.95 GiB
Duration                                 : 1 h 56 min
Overall bit rate                         : 4 864 kb/s
Movie name                               : Passengers (2016)
Encoded date                             : UTC 2018-09-06 15:55:14
Writing application                      : v20.0.0 ('I Am The Sun') 32-bit
Writing library                          : libebml v1.3.5 + v1.4.8
Cover                                    : Yes
Attachments                              : Cover.jpg

Video
ID                                       : 1
Format                                   : HEVC
Format/Info                              : High Efficiency Video Coding
Format profile                           : Main [email protected]@Main
Codec ID                                 : V_MPEGH/ISO/HEVC
Duration                                 : 1 h 56 min
Bit rate                                 : 3 774 kb/s
Width                                    : 1 920 pixels
Height                                   : 802 pixels
Display aspect ratio                     : 2.40:1
Frame rate mode                          : Constant
Frame rate                               : 23.976 (24000/1001) FPS
Color space                              : YUV
Chroma subsampling                       : 4:2:0
Bit depth                                : 10 bits
Bits/(Pixel*Frame)                       : 0.102
Stream size                              : 3.06 GiB (78%)
Writing library                          : x265 1.9:[Windows][GCC 4.9.2][64 bit] 10bit
Encoding settings                        : wpp / ctu=64 / min-cu-size=8 / max-tu-size=32 / tu-intra-depth=3 / tu-inter-depth=3 / me=3 / subme=4 / merange=57 / rect / amp / max-merge=4 / temporal-mvp / no-early-skip / rdpenalty=0 / no-tskip / no-tskip-fast / strong-intra-smoothing / no-lossless / no-cu-lossless / no-constrained-intra / no-fast-intra / open-gop / no-temporal-layers / interlace=0 / keyint=240 / min-keyint=24 / scenecut=40 / rc-lookahead=40 / lookahead-slices=0 / bframes=8 / bframe-bias=0 / b-adapt=2 / ref=5 / limit-refs=1 / limit-modes / weightp / weightb / aq-mode=1 / qg-size=32 / aq-strength=1.00 / cbqpoffs=0 / crqpoffs=0 / rd=6 / psy-rd=2.00 / rdoq-level=2 / psy-rdoq=1.00 / signhide / deblock / sao / no-sao-non-deblock / b-pyramid / cutree / no-intra-refresh / rc=crf / crf=16.1 / qcomp=0.60 / qpmin=0 / qpmax=51 / qpstep=4 / ipratio=1.40 / pbratio=1.30
Default                                  : Yes
Forced                                   : No
Color range                              : Limited
Color primaries                          : BT.709
Transfer characteristics                 : BT.709
Matrix coefficients                      : BT.709

Audio #1
ID                                       : 2
Format                                   : AC-3
Format/Info                              : Audio Coding 3
Codec ID                                 : A_AC3
Duration                                 : 1 h 56 min
Bit rate mode                            : Constant
Bit rate                                 : 640 kb/s
Channel(s)                               : 6 channels
Channel positions                        : Front: L C R, Side: L R, LFE
Sampling rate                            : 48.0 kHz
Frame rate                               : 31.250 FPS (1536 SPF)
Bit depth                                : 16 bits
Compression mode                         : Lossy
Delay relative to video                  : -83 ms
Stream size                              : 532 MiB (13%)
Title                                    : 5.1 @ 640 kbps
Language                                 : Ukrainian
Service kind                             : Complete Main
Default                                  : Yes
Forced                                   : Yes

Audio #2
ID                                       : 3
Format                                   : AC-3
Format/Info                              : Audio Coding 3
Codec ID                                 : A_AC3
Duration                                 : 1 h 56 min
Bit rate mode                            : Constant
Bit rate                                 : 448 kb/s
Channel(s)                               : 6 channels
Channel positions                        : Front: L C R, Side: L R, LFE
Sampling rate                            : 48.0 kHz
Frame rate                               : 31.250 FPS (1536 SPF)
Bit depth                                : 16 bits
Compression mode                         : Lossy
Delay relative to video                  : -83 ms
Stream size                              : 372 MiB (9%)
Title                                    : 5.1 @ 448 kbps
Language                                 : English
Service kind                             : Complete Main
Default                                  : No
Forced                                   : No

Text #1
ID                                       : 4
Format                                   : UTF-8
Codec ID                                 : S_TEXT/UTF8
Codec ID/Info                            : UTF-8 Plain Text
Duration                                 : 1 h 48 min
Bit rate                                 : 0 b/s
Count of elements                        : 13
Stream size                              : 510 Bytes (0%)
Title                                    : Forced
Language                                 : Ukrainian
Default                                  : Yes
Forced                                   : Yes

Text #2
ID                                       : 5
Format                                   : UTF-8
Codec ID                                 : S_TEXT/UTF8
Codec ID/Info                            : UTF-8 Plain Text
Duration                                 : 1 h 54 min
Bit rate                                 : 75 b/s
Count of elements                        : 1282
Stream size                              : 63.3 KiB (0%)
Title                                    : Full
Language                                 : Ukrainian
Default                                  : No
Forced                                   : No

Text #3
ID                                       : 6
Format                                   : UTF-8
Codec ID                                 : S_TEXT/UTF8
Codec ID/Info                            : UTF-8 Plain Text
Duration                                 : 1 h 45 min
Bit rate                                 : 49 b/s
Count of elements                        : 1280
Stream size                              : 37.9 KiB (0%)
Title                                    : Full
Language                                 : English
Default                                  : No
Forced                                   : No

Text #4
ID                                       : 7
Format                                   : UTF-8
Codec ID                                 : S_TEXT/UTF8
Codec ID/Info                            : UTF-8 Plain Text
Duration                                 : 1 h 48 min
Bit rate                                 : 57 b/s
Count of elements                        : 1619
Stream size                              : 45.3 KiB (0%)
Title                                    : SDH
Language                                 : English
Default                                  : No
Forced                                   : No

Menu
00:00:00.000                             : en:00:00:00.000
00:07:04.674                             : en:00:07:04.674
00:14:38.211                             : en:00:14:38.211
00:20:33.649                             : en:00:20:33.649
00:25:06.338                             : en:00:25:06.338
00:30:30.662                             : en:00:30:30.662
00:40:47.987                             : en:00:40:47.987
00:50:23.020                             : en:00:50:23.020
00:57:28.945                             : en:00:57:28.945
01:02:54.813                             : en:01:02:54.813
01:10:47.160                             : en:01:10:47.160
01:17:48.664                             : en:01:17:48.664
01:25:17.029                             : en:01:25:17.029
01:31:45.041                             : en:01:31:45.041
01:37:53.242                             : en:01:37:53.242
01:42:18.549                             : en:01:42:18.549
Скріншоти




Джерело:
Особиста оцінка: 10 - без зайвих вагань рекомендую всім!


 Трекер:    Зареєстрований   

Завантажити / скачати фільм українською



відео для новачків



 Зареєстрований:   2018-09-10 10:55
 Розмір:   3.95 GB 
 Оцінка фільму:   7.5/10 (Голосів: 4)
   
uaxpasha 
Поважний учасник


З нами з: 05.08.12
Востаннє: 17.12.18
Повідомлень: 234

2018-09-10 22:34  
Дуже слабкий фільм. Не вартий уваги, хоча це можна виправити починаючи дивитись з середини.

Але дивився якесь ессе на ютубі про нього, і там було припущення що якби фільм почався з того моменту коли
Дженніфер Лоуренс виходить зі сну, і нічого не розуміє разом з глядачами, було б цікавіше дивитись і на Крусі Пратта, який здавався якимось підозрілим (фільм був би менш комедійним, а більш трилерним), а посеред їх суперечки показати флешбек як на початку Крісові було скучно самому.

robofob 
Частий відвідувач


З нами з: 05.05.16
Востаннє: 17.12.18
Повідомлень: 38

2018-09-11 06:47  
Вони навіть упевнені, що вони актори.
Ваш часовий пояс: GMT + 2 Години

Нова тема   Відповісти