Втікачі / Fled (1996) 720p 3xUkr/Eng | Sub Eng

Нові коментарі

Нова тема   Відповісти
Автор Повідомлення
Anonymous 







2018-09-10 11:52  
Втікачі / Fled (1996) 720p 3xUkr/Eng | Sub Eng

Втікачі / Fled (1996) 720p 3xUkr/Eng | Sub Eng


Жанр: кримінальний, пригодницький, детектив, трилер, бойовик
Країна: США



Кінокомпанія: Metro-Goldwyn-Mayer (MGM)
Режисер: Кевін Хукс
Актори: Лоуренс Фішборн, Cтівен Болдуін, Уіл Паттон, Роберт Джон Бурк, Роберт Хукс, Віктор Ріверз, Девід Дьюкс

Сюжет:
Пайпер - міцний горішок, Додж - комп'ютерний хакер, зв'язок якого з 25 мільйонами вкрадених доларів як магніт притягує натовпи найманих вбивць і корумпованих державних чиновників. Раптово справи приймають несподівані оберти ... Єдине, що може врятувати втікачів, це дискета, що зберігає секрет зухвалого комп'ютерного злому. До небезпечних пошуків приєднуються: приваблива молода жінка, підступний судовий виконавець, чесний поліцейський і кубинська мафія!


Тривалість: 01:37:47
Якість: 720p
Відео:
кодек:
розмір кадру: 1280х694
бітрейт: 8700 кб/с

Аудіо # 1:
мова: українська
переклад: багатоголосий закадровий ,
кодек: 2.0
бітрейт: 192 кб/с

Аудіо # 2:
мова: українська
переклад: багатоголосий закадровий
кодек: 2.0
бітрейт: 192 кб/с

Аудіо # 3:
мова: українська
переклад: багатоголосий закадровий
кодек: 2.0
бітрейт: 192 кб/с

Аудіо # 4:
мова: англійська
переклад: оригінал
кодек: 5.1
бітрейт: 1509 кб/с

Субтитри:
мова: англійська
тип: програмні (м'які)
формат: *.srt
Info
General
Unique ID : 251229269860962027072707433668377760632 (0xBD00FF53D93876A395D04AEB8ACED378)
Format :
Format version : Version 4 / Version 2
File size : 7.37 GiB
Duration : 1 h 37 min
Overall bit rate : 10.8 Mb/s
Encoded date : UTC 2018-09-10 08:41:55
Writing application : v6.1.0 ('Old Devil') built on Mar 4 2013 09:10:42
Writing library : libebml v1.3.0 + v1.4.0

Video
ID : 1
Format : AVC
Format/Info : Advanced Video Codec
Format profile : [email protected]
Format settings : CABAC / 9 Ref Frames
Format settings, CABAC : Yes
Format settings, ReFrames : 9 frames
Codec ID : V_MPEG4/ISO/AVC
Duration : 1 h 37 min
Bit rate : 8 700 kb/s
Width : 1 280 pixels
Height : 694 pixels
Display aspect ratio : 1.85:1
Frame rate mode : Constant
Frame rate : 23.976 (24000/1001) FPS
Color space : YUV
Chroma subsampling : 4:2:0
Bit depth : 8 bits
Scan type : Progressive
Bits/(Pixel*Frame) : 0.408
Stream size : 5.80 GiB (79%)
Writing library : core 148 r2721kMod 72d53ab
Encoding settings : cabac=1 / ref=9 / deblock=1:-3:-3 / analyse=0x3:0x133 / me=umh / subme=10 / psy=1 / fade_compensate=0.00 / psy_rd=1.10:0.05 / mixed_ref=1 / me_range=24 / chroma_me=1 / trellis=2 / 8x8dct=1 / cqm=0 / deadzone=21,11 / fast_pskip=1 / chroma_qp_offset=-3 / threads=6 / lookahead_threads=1 / sliced_threads=0 / nr=0 / decimate=1 / interlaced=0 / bluray_compat=0 / constrained_intra=0 / fgo=0 / bframes=8 / b_pyramid=2 / b_adapt=2 / b_bias=0 / direct=3 / weightb=1 / open_gop=0 / weightp=2 / keyint=250 / keyint_min=23 / scenecut=40 / intra_refresh=0 / rc=2pass / mbtree=0 / bitrate=8700 / ratetol=1.0 / qcomp=0.65 / qpmin=0 / qpmax=69 / qpstep=4 / cplxblur=20.0 / qblur=0.5 / ip_ratio=1.35 / pb_ratio=1.25 / aq=3:0.70
Language : English
Default : Yes
Forced : No
Color range : Limited
Matrix coefficients : BT.709
Statistics Tags Issue : v9.5.0 ('Quiet Fire') 64bit 2016-11-20 12:24:13 / v6.1.0 ('Old Devil') built on Mar 4 2013 09:10:42 2018-09-10 08:41:55
FromStats_BitRate : 8696938
FromStats_Duration : 01:37:47.862000000
FromStats_FrameCount : 140688
FromStats_StreamSize : 6379054264

Audio #1
ID : 2
Format : AC-3
Format/Info : Audio Coding 3
Codec ID : A_AC3
Duration : 1 h 37 min
Bit rate mode : Constant
Bit rate : 192 kb/s
Channel(s) : 2 channels
Channel positions : Front: L R
Sampling rate : 48.0 kHz
Frame rate : 31.250 FPS (1536 SPF)
Bit depth : 16 bits
Compression mode : Lossy
Stream size : 134 MiB (2%)
Title : UKR (ICTV)
Language : Ukrainian
Service kind : Complete Main
Default : Yes
Forced : Yes
Statistics Tags Issue : v9.5.0 ('Quiet Fire') 64bit 2016-11-20 12:24:13 / v6.1.0 ('Old Devil') built on Mar 4 2013 09:10:42 2018-09-10 08:41:55
FromStats_BitRate : 192000
FromStats_Duration : 01:37:47.904000000
FromStats_FrameCount : 183372
FromStats_StreamSize : 140829696

Audio #2
ID : 3
Format : AC-3
Format/Info : Audio Coding 3
Codec ID : A_AC3
Duration : 1 h 37 min
Bit rate mode : Constant
Bit rate : 192 kb/s
Channel(s) : 2 channels
Channel positions : Front: L R
Sampling rate : 48.0 kHz
Frame rate : 31.250 FPS (1536 SPF)
Bit depth : 16 bits
Compression mode : Lossy
Stream size : 134 MiB (2%)
Title : UKR (2+2)
Language : Ukrainian
Service kind : Complete Main
Default : No
Forced : No
Statistics Tags Issue : v9.5.0 ('Quiet Fire') 64bit 2016-11-20 12:24:13 / v6.1.0 ('Old Devil') built on Mar 4 2013 09:10:42 2018-09-10 08:41:55
FromStats_BitRate : 192000
FromStats_Duration : 01:37:47.904000000
FromStats_FrameCount : 183372
FromStats_StreamSize : 140829696

Audio #3
ID : 4
Format : AC-3
Format/Info : Audio Coding 3
Codec ID : A_AC3
Duration : 1 h 37 min
Bit rate mode : Constant
Bit rate : 192 kb/s
Channel(s) : 2 channels
Channel positions : Front: L R
Sampling rate : 48.0 kHz
Frame rate : 31.250 FPS (1536 SPF)
Bit depth : 16 bits
Compression mode : Lossy
Stream size : 134 MiB (2%)
Title : UKR (Новий)
Language : Ukrainian
Service kind : Complete Main
Default : No
Forced : No
Statistics Tags Issue : v9.5.0 ('Quiet Fire') 64bit 2016-11-20 12:24:13 / v6.1.0 ('Old Devil') built on Mar 4 2013 09:10:42 2018-09-10 08:41:55
FromStats_BitRate : 192000
FromStats_Duration : 01:37:47.904000000
FromStats_FrameCount : 183372
FromStats_StreamSize : 140829696

Audio #4
ID : 5
Format :
Format/Info : Digital Theater Systems
Codec ID : A_DTS
Duration : 1 h 37 min
Bit rate mode : Constant
Bit rate : 1 509 kb/s
Channel(s) : 6 channels
Channel positions : Front: L C R, Side: L R, LFE
Sampling rate : 48.0 kHz
Frame rate : 93.750 FPS (512 SPF)
Bit depth : 24 bits
Compression mode : Lossy
Stream size : 1.03 GiB (14%)
Language : English
Default : No
Forced : No
Statistics Tags Issue : v9.5.0 ('Quiet Fire') 64bit 2016-11-20 12:24:13 / v6.1.0 ('Old Devil') built on Mar 4 2013 09:10:42 2018-09-10 08:41:55
FromStats_BitRate : 1508999
FromStats_Duration : 01:37:47.894000000
FromStats_FrameCount : 550115
FromStats_StreamSize : 1106831380

Text
ID : 6
Format : UTF-8
Codec ID : S_TEXT/UTF8
Codec ID/Info : UTF-8 Plain Text
Language : English
Default : No
Forced : No
Statistics Tags Issue : v9.5.0 ('Quiet Fire') 64bit 2016-11-20 12:24:13 / v6.1.0 ('Old Devil') built on Mar 4 2013 09:10:42 2018-09-10 08:41:55
FromStats_BitRate : 55
FromStats_Duration : 01:32:36.098000000
FromStats_FrameCount : 916
FromStats_StreamSize : 38844

Menu
00:00:00.000 : en:00:00:00.000
00:00:10.926 : en:00:00:10.926
00:11:16.716 : en:00:11:16.716
00:23:20.606 : en:00:23:20.606
00:34:55.425 : en:00:34:55.425
00:45:33.771 : en:00:45:33.771
00:56:14.286 : en:00:56:14.286
01:10:14.251 : en:01:10:14.251
01:24:39.698 : en:01:24:39.698
Скріншоти









За українські доріжки дякую п.: hellforces, Ромео, slavik_v_z, staf777, Arsenfpu
Особиста подяка пану denixx за надану матеріальну допомогу на підтримку цього і майбутніх релізів.
Джерело:


Срібний реліз (на рейтинг впливає 50% завантаженого)
 Трекер:    Зареєстрований   

Завантажити / скачати фільм українською



відео для новачків



 Зареєстрований:   2018-09-10 11:52
 Розмір:   7.37 GB 
 Оцінка фільму:   10/10 (Голосів: 3)
   
Інші релізи
   Втікачі / Fled (1996) 3xUkr/Eng Arsenfpu  2 / 0   1.91 GB   2017-02-09 21:58 
   Втікачі / Fled (1996) Remux 1080p 3xUkr/Eng | Sub Eng staf777  0 / 0   21.55 GB   2016-12-19 10:58 
   Втікачі / Fled (1996) 720p Ukr/Eng greg_7  0 / 0   3.63 GB   2011-06-23 22:18 
Ваш часовий пояс: GMT + 2 Години

Нова тема   Відповісти