Гравітація / Gravity (2013) 1080p H.265 Ukr/Eng | Sub Ukr/Eng

Нові коментарі

Нова тема   Відповісти
Автор Повідомлення
-Star-Lord- 
VIP


З нами з: 09.08.18
Востаннє: 19.12.18
Повідомлень: 355

2018-09-10 10:48  
Гравітація / Gravity (2013) 1080p H.265 Ukr/Eng | Sub Ukr/Eng

Гравітація / Gravity (2013) 1080p H.265 Ukr/Eng | Sub Ukr/Eng


Жанр: драма, фантастика, трилер
Країна: США



Кінокомпанія: Warner Bros., Esperanto Filmoj, Heyday Films
Режисер: Альфонсо Куарон / Alfonso Cuarón
Актори: Сандра Баллок / Sandra Bullock, Джордж Клуні / George Clooney, Ед Гарріс / Ed Harris, Орто Іґнатіуссен / Orto Ignatiussen, Фалдут Шарма / Phaldut Sharma, Емі Воррен / Amy Warren, Башер Саваж / Basher Savage, Дженіс Агерн / Janis Ahern

Сюжет:
Група астронавтів коротає дні на космічній станції біля кордонів сонячної системи. Одного разу, коли капітан і його миловидна колега виконують завдання у відкритому космосі, уламки супутника, що вибухнув, вбивають весь екіпаж. Двоє бідолах залишаються зовсім самі за мільйони миль від Землі, намагаючись знайти спосіб повернутися додому.


Тривалість: 01:30:58
Якість:
Відео:
кодек: H.265 (HEVC)
розмір кадру: 1920 х 800
бітрейт: 4 885 кб/с
бітова глибина: 10 біт
Увага! Перед завантаженням переконайтесь, що ваш пристрій відтворення (та/або ПЗ) підтримує H.265 (HEVC)

Аудіо # 1:
мова: українська
переклад: професійний дубльований
кодек: 5.1
бітрейт: 448 кб/с

Аудіо # 2:
мова: англійська
переклад: оригінал
кодек: 5.1
бітрейт: 448 кб/с

Субтитри # 1:
мова: українська
тип: програмні (м'які)
формат: *.srt

Субтитри # 2:
мова: англійська
тип: програмні (м'які)
формат: *.srt


Info
Код:
General
Unique ID                                : 319120400983353841119512542719871770676 (0xF0145A864EBA720A4C74549C62476034)
Complete name                            : F:\Video\Gravity (2013) 1080p H.265 [UKR_ENG].
Format                                   :
Format version                           : Version 4 / Version 2
File size                                : 3.68 GiB
Duration                                 : 1 h 30 min
Overall bit rate                         : 5 783 kb/s
Movie name                               : Gravity (2013)
Encoded date                             : UTC 2018-09-06 09:27:47
Writing application                      : v20.0.0 ('I Am The Sun') 32-bit
Writing library                          : libebml v1.3.5 + v1.4.8
Cover                                    : Yes
Attachments                              : Cover.jpg

Video
ID                                       : 1
Format                                   : HEVC
Format/Info                              : High Efficiency Video Coding
Format profile                           : Main [email protected]@Main
Codec ID                                 : V_MPEGH/ISO/HEVC
Duration                                 : 1 h 30 min
Bit rate                                 : 4 885 kb/s
Width                                    : 1 920 pixels
Height                                   : 800 pixels
Display aspect ratio                     : 2.40:1
Frame rate mode                          : Constant
Frame rate                               : 23.976 (24000/1001) FPS
Color space                              : YUV
Chroma subsampling                       : 4:2:0
Bit depth                                : 10 bits
Bits/(Pixel*Frame)                       : 0.133
Stream size                              : 3.10 GiB (84%)
Writing library                          : x265 1.9:[Windows][GCC 4.9.2][64 bit] 10bit
Encoding settings                        : wpp / ctu=64 / min-cu-size=8 / max-tu-size=32 / tu-intra-depth=3 / tu-inter-depth=3 / me=3 / subme=4 / merange=57 / rect / amp / max-merge=4 / temporal-mvp / no-early-skip / rdpenalty=0 / no-tskip / no-tskip-fast / strong-intra-smoothing / no-lossless / no-cu-lossless / no-constrained-intra / no-fast-intra / open-gop / no-temporal-layers / interlace=0 / keyint=240 / min-keyint=24 / scenecut=40 / rc-lookahead=40 / lookahead-slices=0 / bframes=8 / bframe-bias=0 / b-adapt=2 / ref=5 / limit-refs=1 / limit-modes / weightp / weightb / aq-mode=1 / qg-size=32 / aq-strength=1.00 / cbqpoffs=0 / crqpoffs=0 / rd=6 / psy-rd=2.00 / rdoq-level=2 / psy-rdoq=1.00 / signhide / deblock / sao / no-sao-non-deblock / b-pyramid / cutree / no-intra-refresh / rc=crf / crf=18.1 / qcomp=0.60 / qpmin=0 / qpmax=51 / qpstep=4 / ipratio=1.40 / pbratio=1.30
Default                                  : Yes
Forced                                   : No
Color range                              : Limited
Color primaries                          : BT.709
Transfer characteristics                 : BT.709
Matrix coefficients                      : BT.709

Audio #1
ID                                       : 2
Format                                   : AC-3
Format/Info                              : Audio Coding 3
Codec ID                                 : A_AC3
Duration                                 : 1 h 30 min
Bit rate mode                            : Constant
Bit rate                                 : 448 kb/s
Channel(s)                               : 6 channels
Channel positions                        : Front: L C R, Side: L R, LFE
Sampling rate                            : 48.0 kHz
Frame rate                               : 31.250 FPS (1536 SPF)
Bit depth                                : 16 bits
Compression mode                         : Lossy
Delay relative to video                  : -83 ms
Stream size                              : 292 MiB (8%)
Title                                    : Blu Ray 5.1 @ 448 kbps
Language                                 : Ukrainian
Service kind                             : Complete Main
Default                                  : Yes
Forced                                   : No

Audio #2
ID                                       : 3
Format                                   : AC-3
Format/Info                              : Audio Coding 3
Codec ID                                 : A_AC3
Duration                                 : 1 h 30 min
Bit rate mode                            : Constant
Bit rate                                 : 448 kb/s
Channel(s)                               : 6 channels
Channel positions                        : Front: L C R, Side: L R, LFE
Sampling rate                            : 48.0 kHz
Frame rate                               : 31.250 FPS (1536 SPF)
Bit depth                                : 16 bits
Compression mode                         : Lossy
Delay relative to video                  : -83 ms
Stream size                              : 292 MiB (8%)
Title                                    : Original 5.1 @ 448 kbps
Language                                 : English
Service kind                             : Complete Main
Default                                  : No
Forced                                   : No

Text #1
ID                                       : 4
Format                                   : UTF-8
Codec ID                                 : S_TEXT/UTF8
Codec ID/Info                            : UTF-8 Plain Text
Duration                                 : 1 h 30 min
Bit rate                                 : 65 b/s
Count of elements                        : 881
Stream size                              : 43.2 KiB (0%)
Language                                 : Ukrainian
Default                                  : Yes
Forced                                   : No

Text #2
ID                                       : 5
Format                                   : UTF-8
Codec ID                                 : S_TEXT/UTF8
Codec ID/Info                            : UTF-8 Plain Text
Duration                                 : 1 h 29 min
Bit rate                                 : 44 b/s
Count of elements                        : 884
Stream size                              : 29.2 KiB (0%)
Language                                 : English
Default                                  : No
Forced                                   : No

Menu
00:00:00.000                             : en:Chapter 01
00:13:08.829                             : en:Chapter 02
00:21:33.542                             : en:Chapter 03
00:29:12.667                             : en:Chapter 04
00:39:59.855                             : en:Chapter 05
00:48:49.051                             : en:Chapter 06
00:57:00.667                             : en:Chapter 07
01:08:08.417                             : en:Chapter 08
01:15:27.147                             : en:Chapter 09
01:23:50.567                             : en:Chapter 10
Скріншоти




Джерело:
Особиста оцінка: 10 - без зайвих вагань рекомендую всім!


 Трекер:    Зареєстрований   

Завантажити / скачати фільм українською



відео для новачків



 Зареєстрований:   2018-09-10 10:48
 Розмір:   3.68 GB 
 Оцінка фільму:   8/10 (Голосів: 3)
   
Інші релізи
   Гравітація / Gravity (2013) 720p Ukr/Eng | Sub Ukr (60fps) dr_stas  4 / 0   4.8 GB   2014-04-27 16:01 
   Гравітація / Gravity (2013) 720p-mini Drool  6 / 0   1.84 GB   2014-02-18 08:59 
   Гравітація / Gravity (2013) 1080p Ukr/Eng (3D) [Half OverUnder] famous37  3 / 0   11.81 GB   2014-02-14 19:03 
   Гравітація / Gravity (2013) 1080p Ukr/Eng | Sub Ukr/Eng 11FrYkT  8 / 1   6.84 GB   2014-02-14 18:50 
   Гравітація / Gravity (2013) AVC Ukr/Eng | Sub Ukr/Eng aalleexx85  2 / 0   3.08 GB   2014-02-14 16:27 
   Гравітація / Gravity (2013) 720p Ukr/Eng | Sub Ukr/Eng 11FrYkT  4 / 0   4.65 GB   2014-02-14 10:09 
   Гравітація / Gravity (2013) Ukr/Eng | Sub Ukr/Eng karvai0  11 / 1   1.73 GB   2014-02-14 09:55 
   Гравітація / Gravity (2013) Blu-ray CEE Multi | Sub Multi smak2001  2 / 0   42.98 GB   2014-02-14 01:59 
Ваш часовий пояс: GMT + 2 Години

Нова тема   Відповісти