Я, Робот / I, Robot (2004) 1080p H.265 Ukr/Eng | Sub Ukr/Eng

Нові коментарі

Нова тема   Відповісти
Автор Повідомлення
-Star-Lord- 
VIP


З нами з: 09.08.18
Востаннє: 20.05.19
Повідомлень: 775

2018-09-10 11:40  
Я, Робот / I, Robot (2004) 1080p H.265 Ukr/Eng | Sub Ukr/Eng

Я, Робот / I, Robot (2004) 1080p H.265 Ukr/Eng | Sub Ukr/Eng


Жанр: фантастика, бойовик, трилер, детектив
Країна: США, Німеччина



Кінокомпанія: Twentieth Century Fox Film Corporation, Mediastream Vierte Film GmbH & Co. Vermarktungs KG, Davis Entertainment
Режисер: Алекс Пройас / Alex Proyas
Актори: Вілл Сміт / Will Smith, Бріджет Мойнехен / Bridget Moynahan, Алан Тудик / Alan Tudyk, Чі МакБрайд / Chi McBride, Джеймс Кромуелл / James Cromwell, Шиа ЛаБеф / Shia LaBeouf, Брюс Грінвуд / Bruce Greenwood, Адріан Рікард / Adrian Ricard, Джеррі Вассерман / Jerry Wasserman, Фіона Хоган / Fiona Hogan, Пітер Шинкода / Peter Shinkoda та інші

Сюжет:
Дія фільму відбувається в далекому майбутньому (2035 р.), де роботи є звичайними помічниками людини. Головний герой - поліцейський, що «не переварює» роботів, розслідує справу про вбивство, в якому замішаний робот.

Мова йде про можливе порушення «Закону про роботів» (робот ніколи не підніме руку на людину), що, в принципі, неможливо. Ситуація близька до катастрофічної: Якщо машини можуть порушувати цей закон, то вже ніщо не зупинить їх від захоплення контролю над людьми, тим більше, що людство вже давно стало повністю залежне від роботів ...


Тривалість: 01:54:44
Якість:
Відео:
кодек: H.265 (HEVC)
розмір кадру: 1920 х 826
бітрейт: 3 604 кб/с
бітова глибина: 10 біт
Увага! Перед завантаженням переконайтесь, що ваш пристрій відтворення (та/або ПЗ) підтримує H.265 (HEVC)

Аудіо # 1:
мова: українська
переклад: багатоголосий закадровий
кодек: 2.0
бітрейт: 192 кб/с

Аудіо # 2:
мова: англійська
переклад: оригінал
кодек: 5.1
бітрейт: 384 кб/с

Субтитри # 1:
мова: українська
тип: програмні (м'які)
формат: *.srt

Субтитри # 2:
мова: англійська
тип: програмні (м'які)
формат: *.srt


Info
Код:
General
Unique ID                                : 250646638922142080486435522951547427024 (0xBC90C967881708D0167DF688DA5B98D0)
Complete name                            : F:\Video\I, Robot (2004) 1080p H.265 [UKR_ENG].
Format                                   :
Format version                           : Version 4 / Version 2
File size                                : 3.35 GiB
Duration                                 : 1 h 54 min
Overall bit rate                         : 4 184 kb/s
Movie name                               : I, Robot (2004)
Encoded date                             : UTC 2018-09-06 19:13:40
Writing application                      : v20.0.0 ('I Am The Sun') 32-bit
Writing library                          : libebml v1.3.5 + v1.4.8
Cover                                    : Yes
Attachments                              : Cover.jpg

Video
ID                                       : 1
Format                                   : HEVC
Format/Info                              : High Efficiency Video Coding
Format profile                           : Main [email protected]@Main
Codec ID                                 : V_MPEGH/ISO/HEVC
Duration                                 : 1 h 54 min
Bit rate                                 : 3 604 kb/s
Width                                    : 1 920 pixels
Height                                   : 826 pixels
Display aspect ratio                     : 2.35:1
Frame rate mode                          : Constant
Frame rate                               : 23.976 (24000/1001) FPS
Color space                              : YUV
Chroma subsampling                       : 4:2:0
Bit depth                                : 10 bits
Bits/(Pixel*Frame)                       : 0.095
Stream size                              : 2.89 GiB (86%)
Writing library                          : x265 1.9:[Windows][GCC 4.9.2][64 bit] 10bit
Encoding settings                        : wpp / ctu=64 / min-cu-size=8 / max-tu-size=32 / tu-intra-depth=2 / tu-inter-depth=2 / me=3 / subme=3 / merange=57 / rect / amp / max-merge=3 / temporal-mvp / no-early-skip / rdpenalty=0 / no-tskip / no-tskip-fast / strong-intra-smoothing / no-lossless / no-cu-lossless / no-constrained-intra / no-fast-intra / open-gop / no-temporal-layers / interlace=0 / keyint=240 / min-keyint=24 / scenecut=40 / rc-lookahead=30 / lookahead-slices=4 / bframes=8 / bframe-bias=0 / b-adapt=2 / ref=4 / limit-refs=2 / limit-modes / weightp / weightb / aq-mode=1 / qg-size=32 / aq-strength=1.00 / cbqpoffs=0 / crqpoffs=0 / rd=6 / psy-rd=2.00 / rdoq-level=2 / psy-rdoq=1.00 / signhide / deblock / sao / no-sao-non-deblock / b-pyramid / cutree / no-intra-refresh / rc=crf / crf=21.0 / qcomp=0.60 / qpmin=0 / qpmax=51 / qpstep=4 / ipratio=1.40 / pbratio=1.30
Default                                  : Yes
Forced                                   : No
Color range                              : Limited
Color primaries                          : BT.709
Transfer characteristics                 : BT.709
Matrix coefficients                      : BT.709

Audio #1
ID                                       : 2
Format                                   : AC-3
Format/Info                              : Audio Coding 3
Codec ID                                 : A_AC3
Duration                                 : 1 h 54 min
Bit rate mode                            : Constant
Bit rate                                 : 192 kb/s
Channel(s)                               : 2 channels
Channel positions                        : Front: L R
Sampling rate                            : 48.0 kHz
Frame rate                               : 31.250 FPS (1536 SPF)
Bit depth                                : 16 bits
Compression mode                         : Lossy
Delay relative to video                  : -71 ms
Stream size                              : 158 MiB (5%)
Title                                    : 1+1
Language                                 : Ukrainian
Service kind                             : Complete Main
Default                                  : Yes
Forced                                   : No

Audio #2
ID                                       : 3
Format                                   : AC-3
Format/Info                              : Audio Coding 3
Codec ID                                 : A_AC3
Duration                                 : 1 h 54 min
Bit rate mode                            : Constant
Bit rate                                 : 384 kb/s
Channel(s)                               : 6 channels
Channel positions                        : Front: L C R, Side: L R, LFE
Sampling rate                            : 48.0 kHz
Frame rate                               : 31.250 FPS (1536 SPF)
Bit depth                                : 16 bits
Compression mode                         : Lossy
Delay relative to video                  : -71 ms
Stream size                              : 315 MiB (9%)
Title                                    : 5.1 @ 384 kbps
Language                                 : English
Service kind                             : Complete Main
Default                                  : No
Forced                                   : No

Text #1
ID                                       : 4
Format                                   : UTF-8
Codec ID                                 : S_TEXT/UTF8
Codec ID/Info                            : UTF-8 Plain Text
Duration                                 : 1 h 46 min
Bit rate                                 : 97 b/s
Count of elements                        : 1143
Stream size                              : 76.6 KiB (0%)
Language                                 : Ukrainian
Default                                  : No
Forced                                   : No

Text #2
ID                                       : 5
Format                                   : UTF-8
Codec ID                                 : S_TEXT/UTF8
Codec ID/Info                            : UTF-8 Plain Text
Duration                                 : 1 h 41 min
Bit rate                                 : 59 b/s
Count of elements                        : 1135
Stream size                              : 44.0 KiB (0%)
Title                                    : Full
Language                                 : English
Default                                  : No
Forced                                   : No

Menu
00:00:00.000                             : :Opening Titles
00:01:46.315                             : :Del Spooner
00:03:29.626                             : :Spoonerville
00:06:17.919                             : :The Chase
00:07:56.893                             : :Police Station
00:10:19.077                             : :Dr. Laning's Hologram
00:12:10.605                             : :Lawrence Robertson
00:15:34.684                             : :Susan Calvin's Tour of USR
00:17:47.358                             : :Sonny
00:22:51.245                             : :Factory Floor
00:26:13.405                             : :Caught
00:26:58.617                             : :The Interrogation
00:33:22.542                             : :The Cafe
00:36:02.952                             : :Lanning's House
00:41:22.897                             : :The End of a Long Day
00:46:07.264                             : :NS-5 Rollout
00:49:05.401                             : :Following Bread Crumbs
00:52:13.881                             : :"You Are Experiencing a Car Accident"
00:55:21.652                             : :One on One
00:58:31.091                             : :The Cavalry Arrives
01:00:06.144                             : :Two Sons
01:01:08.039                             : :Spooner's Past
01:07:55.488                             : :The Bike
01:08:17.468                             : :Sonny's Dream
01:10:23.678                             : :Robertson's Office
01:13:16.600                             : :Shell Game
01:16:53.192                             : :Ghosts in the Machine
01:18:38.839                             : :Father and Son
01:20:13.600                             : :Ambush
01:21:17.664                             : :NS-5s Come On-Line
01:21:56.828                             : :Robot Wars
01:27:28.910                             : :The Back Door
01:28:57.040                             : :The Standoff
01:32:59.032                             : :Viki Level
01:34:44.512                             : :Unauthorized Entry
01:38:08.841                             : :"Save Her!"
01:41:10.272                             : :Reconciliation
01:44:14.790                             : :Sonny's Future
01:45:02.129                             : :End Titles
Скріншоти




Джерело:
Особиста оцінка: 0 - не дивився


Срібний реліз (на рейтинг впливає 50% завантаженого)
 Трекер:    Зареєстрований   

Завантажити / скачати фільм українською



відео для новачків



 Зареєстрований:   2018-09-10 11:40
 Розмір:   3.35 GB 
 Оцінка фільму:   8/10 (Голосів: 7)
   
Інші релізи
   Я, Робот / I, Robot [Open Matte] (2004) AVC Ukr/Eng | sub Ukr/Eng staf777  4 / 1   3.08 GB   2018-05-31 15:45 
   Я, Робот / I, Robot [Open Matte] (2004) Remux 1080p Ukr/Eng | sub Ukr/Eng staf777  4 / 0   22.14 GB   2018-03-26 17:48 
   Я, Робот / I, Robot [Open Matte] (2004) patriot2305  11 / 0   1.45 GB   2014-05-02 22:48 
   Я, Робот / I, Robot [Open Matte] (2004) 1080p Ukr/Eng | sub Ukr/Eng igor911  5 / 0   15.58 GB   2013-08-24 20:42 
   Я, Робот / I, Robot [Open Matte] (2004) 720p Ukr/Eng | sub Ukr/Eng igor911  12 / 0   7.99 GB   2013-08-24 19:34 
   Я, Робот / I, Robot (2004) Ukr/Eng xslim  8 / 0   2.18 GB   2011-04-25 08:45 
Spirtatu 
Новенький


З нами з: 28.11.14
Востаннє: 16.05.19
Повідомлень: 4

2018-11-05 03:58  
Може хтось стати на роздачу, вже декілька днів нікого немає
Ваш часовий пояс: GMT + 2 Години

Нова тема   Відповісти