Незаконне вторгнення / Unlawful Entry (1992) 720p 2xUkr/Eng | Sub Ukr/Eng

Нові коментарі

Нова тема   Відповісти
Автор Повідомлення
Anonymous 







2018-09-10 11:35  
Незаконне вторгнення / Unlawful Entry (1992) 720p 2xUkr/Eng | Sub Ukr/Eng

Незаконне вторгнення / Unlawful Entry (1992) 720p 2xUkr/Eng | Sub Ukr/Eng


Жанр: кримінальний, драма, трилер
Країна: США, Японія



Кінокомпанія: Largo Entertainment, JVC Entertainment Networks, Twentieth Century Fox Film Corporation
Режисер: Джонатан Каплан (Jonathan Kaplan)
Актори: Курт Рассел (Kurt Russell), Рей Ліотта (Ray Liotta), Медлін Стоу (Madeleine Stowe), Роджер Е. Мослі (Roger E. Mosley), Кен Лернер (Ken Lerner), Дебора Оффнер (Deborah Offner), Кармен Ардженціано (Carmen Argenziano), Енді Романо (Andy Romano), Джонні Рей МакГі (Johnny Ray McGhee), Діно Анеллі (Dino Anello), Сонні Карл Девіс (Sonny Carl Davis), Гаррі Нортап (Harry Northup), Шеррі Роуз (Sherrie Rose), Алісія Рамірес (Alicia Ramirez), Рубі Саласар (Ruby Salazar), Спайдер Медісон (Spider Madison), Маїм Роуз (Myim Rose), ТіДжей. МакІнтерф (TJ McInturff), Тоні Лонго (Tony Longo), Оскар Абадіа (Oscar Abadia), Лінн Істмен (Lynn Eastman), Девід Тейлор Моран (David Taylor Moran), Леслі Джеймс (Leslie James), Кріс Кумбс (Chris Coombs), Меттью Леві (Matthew Levy), Доріан Дано (Dorian Daneau), Маріса Дурборав (Marisa Durboraw), Ройс Л. Майнор (Royce L. Minor), Джуді Хой (Judy Hoy), Дік Міллер (Dick Miller), Боб Майнор (Bob Minor), Курт Боулвар (Curt Boulware), Крейг мізутарі (Craig Mizutari), Пол Болен (Paul Bollen), Ед Де Фуско (Ed DeFusco), Джимон Хунсу (Djimon Hounsou), Джеффрі Бейл (Jeffrey Beale), Річард Наріта (Richard Narita), Едурадо Мігр (Eduardo Migre), Петер ДуПоінт (Peter DuPont), Нора Хефлін (Nora Heflin), Чарльз Девід Річардс (Charles David Richards), Чак Беннетт (Chuck Bennett), Роберт Мартін Стейнберг (Robert Martin Steinberg), Віктор Брандт (Victor Brandt), Майкл Мілгром (Michael Milgrom), Джим Селзер (Jim Selzer), Білл Е. Роджерс (Bill E. Rogers), Роберт Костанцо (Robert Costanzo), Скіп О. Карвелл (Skip O. Carwell), Кетрін Паолон (Catherine Paolone), Ед Бічнер (Ed Beechner)

Сюжет:
Подружжя Карен і Майкл Карр живуть собі тихо-мирно разом з улюбленим пухнастим котом і нікого не чіпають. Будинок - фешенебельний, район - спокійний. Принаймні, так запевняли Каррів, коли вони купували особняк. Одного разу вночі в будинок вдерся здоровило-грабіжник, і Майклу довелося захищати дружину і житло за допомогою ключки для гольфу.

На щастя, злочинець втік, не заподіявши шкоди, Карен і Майклу. Подружжя викликало поліцію. Ось так у їхньому будинку з'явився офіцер лос-анджелеської поліції Піт Девіс. У перший, але далеко не в останній раз ... З'явився для того, щоб перетворити тихе мирне життя подружжя Карр на нескінчений і абсолютний жах ...

Що може зробити людина, що володіє реальною владою і до того ж уособлює закон, якщо захоче знищити звичайного громадянина, який не любить зброю, а іноді навіть і не знає до ладу своїх прав? Та все що завгодно! А що може протиставити звичайний громадянин насильству з боку представника влади? Нічого, крім особистого опору ...


Тривалість: 01:51:43
Якість: 720p
Відео:
кодек:
розмір кадру: 1280х720
бітрейт: 3 939 кб/с

Аудіо # 1:
мова: українська
переклад: багатоголосий закадровий
кодек: 2.0
бітрейт: 192 кб/с

Аудіо # 2:
мова: українська
переклад: двоголосий закадровий
кодек: 2.0
бітрейт: 192 кб/с
Примітка: на проміжку 00:44:31-00:44:42 було використано озвучення від каналу КІНО (цей фрагмент було вирізано каналом 2+2)

Аудіо # 3:
мова: англійська
переклад: оригінал
кодек: 5.1
бітрейт: 448 кб/с

Субтитри:
мова: українська
тип: програмні (м'які)
формат: *.srt

Субтитри:
мова: англійська
тип: програмні (м'які)
формат: *.srt
Info
General
Unique ID : 227232686675291546398349555079821034084 (0xAAF36C6E80E9DEF987CDB27E83E28264)
Format :
Format version : Version 4 / Version 2
File size : 3.72 GiB
Duration : 1 h 51 min
Overall bit rate : 4 773 kb/s
Encoded date : UTC 2018-09-10 06:46:06
Writing application : v6.1.0 ('Old Devil') built on Mar 4 2013 09:10:42
Writing library : libebml v1.3.0 + v1.4.0

Video
ID : 1
Format : AVC
Format/Info : Advanced Video Codec
Format profile : [email protected]
Format settings : CABAC / 9 Ref Frames
Format settings, CABAC : Yes
Format settings, ReFrames : 9 frames
Codec ID : V_MPEG4/ISO/AVC
Duration : 1 h 51 min
Bit rate : 3 939 kb/s
Width : 1 280 pixels
Height : 720 pixels
Display aspect ratio : 16:9
Frame rate mode : Constant
Frame rate : 23.976 (24000/1001) FPS
Color space : YUV
Chroma subsampling : 4:2:0
Bit depth : 8 bits
Scan type : Progressive
Bits/(Pixel*Frame) : 0.178
Stream size : 3.00 GiB (81%)
Writing library : core 146 r2538 121396c
Encoding settings : cabac=1 / ref=9 / deblock=1:-3:-3 / analyse=0x3:0x133 / me=umh / subme=11 / psy=1 / psy_rd=1.00:0.00 / mixed_ref=1 / me_range=32 / chroma_me=1 / trellis=2 / 8x8dct=1 / cqm=0 / deadzone=21,11 / fast_pskip=0 / chroma_qp_offset=-2 / threads=12 / lookahead_threads=3 / sliced_threads=0 / nr=0 / decimate=0 / interlaced=0 / bluray_compat=0 / constrained_intra=0 / bframes=9 / b_pyramid=2 / b_adapt=2 / b_bias=0 / direct=3 / weightb=1 / open_gop=0 / weightp=2 / keyint=240 / keyint_min=23 / scenecut=40 / intra_refresh=0 / rc=2pass / mbtree=0 / bitrate=3939 / ratetol=1.0 / qcomp=0.60 / qpmin=0 / qpmax=69 / qpstep=4 / cplxblur=20.0 / qblur=0.5 / ip_ratio=1.40 / pb_ratio=1.30 / aq=1:1.00
Language : English
Default : Yes
Forced : No

Audio #1
ID : 2
Format : AC-3
Format/Info : Audio Coding 3
Codec ID : A_AC3
Duration : 1 h 51 min
Bit rate mode : Constant
Bit rate : 192 kb/s
Channel(s) : 2 channels
Channel positions : Front: L R
Sampling rate : 48.0 kHz
Frame rate : 31.250 FPS (1536 SPF)
Bit depth : 16 bits
Compression mode : Lossy
Stream size : 153 MiB (4%)
Title : UKR (KINO)
Language : Ukrainian
Service kind : Complete Main
Default : Yes
Forced : Yes

Audio #2
ID : 3
Format : AC-3
Format/Info : Audio Coding 3
Codec ID : A_AC3
Duration : 1 h 51 min
Bit rate mode : Constant
Bit rate : 192 kb/s
Channel(s) : 2 channels
Channel positions : Front: L R
Sampling rate : 48.0 kHz
Frame rate : 31.250 FPS (1536 SPF)
Bit depth : 16 bits
Compression mode : Lossy
Stream size : 153 MiB (4%)
Title : UKR (2+2)
Language : Ukrainian
Service kind : Complete Main
Default : No
Forced : No

Audio #3
ID : 4
Format : AC-3
Format/Info : Audio Coding 3
Codec ID : A_AC3
Duration : 1 h 51 min
Bit rate mode : Constant
Bit rate : 448 kb/s
Channel(s) : 6 channels
Channel positions : Front: L C R, Side: L R, LFE
Sampling rate : 48.0 kHz
Frame rate : 31.250 FPS (1536 SPF)
Bit depth : 16 bits
Compression mode : Lossy
Stream size : 358 MiB (9%)
Title : ENG
Language : English
Service kind : Complete Main
Default : No
Forced : No

Text #1
ID : 5
Format : UTF-8
Codec ID : S_TEXT/UTF8
Codec ID/Info : UTF-8 Plain Text
Title : UKR
Language : Ukrainian
Default : Yes
Forced : No

Text #2
ID : 6
Format : UTF-8
Codec ID : S_TEXT/UTF8
Codec ID/Info : UTF-8 Plain Text
Language : English
Default : No
Forced : No

Menu
00:00:00.000 : en:Chapter 01
00:09:30.695 : en:Chapter 02
00:18:20.432 : en:Chapter 03
00:27:43.703 : en:Chapter 04
00:36:17.425 : en:Chapter 05
00:47:14.665 : en:Chapter 06
00:59:12.215 : en:Chapter 07
01:06:25.815 : en:Chapter 08
01:14:36.013 : en:Chapter 09
01:24:33.610 : en:Chapter 10
01:33:34.817 : en:Chapter 11
01:44:11.870 : en:Chapter 12
Скріншоти











За українську доріжку №1 подяка п.: Merdiff, urij546724
За запис звуку з каналу 2+2 дякуємо пану Neytreenor
За українські субтитри подяка п. urij546724
Особиста подяка пану denixx за надану матеріальну допомогу на підтримку цього і майбутніх релізів.
Джерело:


Срібний реліз (на рейтинг впливає 50% завантаженого)
 Трекер:    Зареєстрований   

Завантажити / скачати фільм українською



відео для новачків



 Зареєстрований:   2018-09-10 11:35
 Розмір:   3.72 GB 
 Оцінка фільму:   8.7/10 (Голосів: 3)
   
Інші релізи
Anonymous 







2018-09-10 11:36  
Доріжка від каналу КІНО все ж таки має багатоголосий переклад (окрім чоловічого та жіночого голосу присутній ще й дитячий)
hetzendorf 
Відео Гуртом - підтримка та поширення
Відео Гуртом - підтримка та поширення


З нами з: 23.07.15
Востаннє: 21.10.18
Повідомлень: 1307

2018-10-01 01:00  
Круте кіно! Зараз на жаль так вже не знімають
9/10

Ваш часовий пояс: GMT + 2 Години

Нова тема   Відповісти