Дедпул 2 [Супер-пупер версія] / Deadpool 2 [The Super Duper Cut] (2018) 720p-mini (60 fps)

Нові коментарі

Нова тема   Відповісти
Автор Повідомлення
Drool 
VIP


З нами з: 17.04.10
Востаннє: 17.12.18
Повідомлень: 1502

2018-09-10 10:23  
Дедпул 2 [Супер-пупер версія] / Deadpool 2 [The Super Duper Cut] (2018) 720p-mini (60 fps)

Дедпул 2 [Супер-пупер версія] / Deadpool 2 [The Super Duper Cut] (2018) 720p-mini (60 fps)
Офіційний трейлер


Жанр: бойовик, комедія, пригоди, фантастика
Країна: США


Підлітки до 16 років допускаються до фільму тільки у супроводі одного з батьків, або законного представника
Обмеження - до 16 років потрібний супровід батька або дорослого опікуна (вік може змінюватися в деяких регіонах). Цей рейтинг показує, що оціночна комісія вирішила, що деякий матеріал цього фільму призначається для дорослих. Батьки повинні більше дізнатися про фільм перш, ніж узяти на його перегляд дітей. Рейтинг R також може бути призначений унаслідок використовуваної у фільмі мови, теми, насильства, сексу або зображення вживання наркотиків.
Кінокомпанія: Donners' Company, Kinberg Genre, Marvel Entertainment
Режисер: Девід Літч
Актори: Джош Бролін, Райан Рейнольдс, Морена Баккарін, Зазі Бітц, Бріанна Хілдебранд, Бред Пітт, Білл Скарсгард, Метт Деймон, ТіДжей Міллер, Террі Крюс

Сюжет:
Найкращий балакучий найманець повертається на екрани. Він уже помстився всім, кому хотів, за те, що з ним зробили. Тепер він просто шукає свій втрачений смак до життя, попутно лупцює різні дупи, б'ється з ніндзя, якудзою й іншими цікавими істотами. А тут ще з майбутнього до нас прибув суперсолдат Кейбл, у якого місія – убивати. Ще цю велику дупу потрібно зупинити. У той же час Вейд Вілсон задумався про важливість сім'ї та дружби. Що з ним відбувається? Він не знає, але завжди буде жартувати і багато вбивати всіма можливими способами.


Тривалість: 02:13:59
Якість: 720p-mini
Відео:
кодек:
розмір кадру: 1280x536
бітрейт: 6300 кб/с
кадрів на секунду: 60.000 к/с

Аудіо:
мова: українська
переклад: професійний дубльований
кодек: 5.1
бітрейт: 448 кб/с

Субтитри (форсовані):
мова: українська
тип: програмні (м'які)
формат: *.srt
Info
Код:
General
Unique ID                                : 265616067997057864045685716909346613456 (0xC7D3CB3D7664F98435E2CB5447A968D0)
Complete name                            : /mnt/disk_e/Video/Films/Deadpool.2.2018.Ukr.Dub..720p-mini.60fps.
Format                                   :
Format version                           : Version 4 / Version 2
File size                                : 6.32 GiB
Duration                                 : 2 h 13 min
Overall bit rate                         : 6 748 kb/s
Movie name                               : Дедпул 2 [Супер-пупер версія] / Deadpool 2 [The Super Duper Cut] (2018) 720p-mini (60 fps) | NNNB
Encoded date                             : UTC 2018-09-10 07:54:19
Writing application                      : v8.2.0 ('World of Adventure') 64bit
Writing library                          : libebml v1.3.1 + v1.4.2
Cover                                    : Yes
Attachments                              : cover.png

Video
ID                                       : 1
Format                                   : AVC
Format/Info                              : Advanced Video Codec
Format profile                           : [email protected]
Format settings                          : CABAC / 12 Ref Frames
Format settings, CABAC                   : Yes
Format settings, RefFrames               : 12 frames
Codec ID                                 : V_MPEG4/ISO/AVC
Duration                                 : 2 h 13 min
Bit rate                                 : 6 300 kb/s
Width                                    : 1 280 pixels
Height                                   : 536 pixels
Display aspect ratio                     : 2.40:1
Frame rate mode                          : Constant
Frame rate                               : 60.000 FPS
Color space                              : YUV
Chroma subsampling                       : 4:2:0
Bit depth                                : 8 bits
Scan type                                : Progressive
Bits/(Pixel*Frame)                       : 0.153
Stream size                              : 5.89 GiB (93%)
Title                                    : Дедпул 2 [Супер-пупер версія] / Deadpool 2 [The Super Duper Cut] (2018) 720p-mini (60 fps) | NNNB
Writing library                          : core 155 r2901 7d0ff22
Encoding settings                        : cabac=1 / ref=12 / deblock=1:0:0 / analyse=0x3:0x113 / me=umh / subme=11 / psy=1 / psy_rd=1.00:0.00 / mixed_ref=1 / me_range=32 / chroma_me=1 / trellis=2 / 8x8dct=1 / cqm=0 / deadzone=21,11 / fast_pskip=0 / chroma_qp_offset=-2 / threads=17 / lookahead_threads=4 / sliced_threads=0 / nr=0 / decimate=0 / interlaced=0 / bluray_compat=0 / constrained_intra=0 / bframes=10 / b_pyramid=2 / b_adapt=2 / b_bias=0 / direct=3 / weightb=1 / open_gop=0 / weightp=2 / keyint=250 / keyint_min=25 / scenecut=40 / intra_refresh=0 / rc=2pass / mbtree=0 / bitrate=6300 / ratetol=1.0 / qcomp=0.60 / qpmin=0 / qpmax=69 / qpstep=4 / cplxblur=20.0 / qblur=0.5 / ip_ratio=1.40 / pb_ratio=1.30 / aq=1:1.00
Default                                  : Yes
Forced                                   : Yes

Audio
ID                                       : 2
Format                                   : AC-3
Format/Info                              : Audio Coding 3
Format settings, Endianness              : Big
Codec ID                                 : A_AC3
Duration                                 : 2 h 13 min
Bit rate mode                            : Constant
Bit rate                                 : 448 kb/s
Channel(s)                               : 6 channels
Channel positions                        : Front: L C R, Side: L R, LFE
Sampling rate                            : 48.0 kHz
Frame rate                               : 31.250 FPS (1536 SPF)
Bit depth                                : 16 bits
Compression mode                         : Lossy
Stream size                              : 429 MiB (7%)
Title                                    : 5.1 @ 448 kbps
Language                                 : Ukrainian
Service kind                             : Complete Main
Default                                  : Yes
Forced                                   : Yes

Text
ID                                       : 3
Format                                   : UTF-8
Codec ID                                 : S_TEXT/UTF8
Codec ID/Info                            : UTF-8 Plain Text
Duration                                 : 2 h 3 min
Bit rate                                 : 1 b/s
Count of elements                        : 46
Stream size                              : 1.60 KiB (0%)
Title                                    : Forced
Language                                 : Ukrainian
Default                                  : Yes
Forced                                   : Yes
Скріншоти
Джерело відеоряду:
Звукову доріжку та форсовані субтитри взято з релізу 720p.
Особиста оцінка: 8 - мені сподобалося


 Трекер:    Зареєстрований   

Завантажити / скачати фільм українською



відео для новачків



 Зареєстрований:   2018-09-10 10:23
 Розмір:   6.32 GB 
 Оцінка фільму:   8.4/10 (Голосів: 18)
   
Ваш часовий пояс: GMT + 2 Години

Нова тема   Відповісти