Місія Сереніті / Serenity (2005) 1080p H.265 2xUkr/Eng | Sub Eng

Нові коментарі

Нова тема   Відповісти
Автор Повідомлення
Anonymous 







2018-09-10 11:19  
Місія Сереніті / Serenity (2005) 1080p H.265 2xUkr/Eng | Sub Eng

Місія Сереніті / Serenity (2005) 1080p H.265 2xUkr/Eng | Sub Eng


Жанр: фантастика, пригодницький, бойовик
Країна: США
Кінокомпанія: Universal Pictures
Режисер: Джос Уедон / Joss Whedon
Актори: Натан Філіон / Nathan Fillion, Джина Торрес / Gina Torres, Алан Тьюдік / Alan Tudyk, Морена Баккарін / Morena Baccarin, Адам Болдуін / Adam Baldwin, Джевел Стейт / Jewel Staite, Шон Мехер / Sean Maher та ін.

Сюжет:
Космічний «морський вовк» і ветеран Громадянської Галактичної війни Малькольм «Мел» Рейнольдс - тепер усього лише капітан транспортного корабля. Коли вони взяли на борт пасажирів - молодого лікаря і його дивну сестру з телепатичними здібностями, ні він, ні його товариші не припускали, в яку історію втягнуться. Рятуючись відразу від кількох могутніх ворогів - і від військових сил тоталітарного Всесвітнього Альянсу, і від жахливих канібалів женців, команда корабля навіть не здогадувалася, яка загроза ховається на борту «Сереніті».

Тривалість: 01:59:02
Якість:
Відео:
кодек: H.265 (HEVC)
розмір кадру: 1920 x 818
бітрейт: 3 525 кб/с
бітова глибина: 10 біт
Увага! Перед завантаженням переконайтесь, що ваш пристрій відтворення (та/або ПЗ) підтримує H.265 (HEVC)

Аудіо # 1:
мова: українська
переклад: багатоголосий закадровий
кодек: AC-3 2.0
бітрейт: 192 кб/с

Аудіо # 2:
мова: українська
переклад: багатоголосий закадровий
кодек: AC-3 2.0
бітрейт: 192 кб/с

Аудіо # 3:
мова: англійська
переклад: оригінал
кодек: AC-3 5.1
бітрейт: 448 кб/с

Субтитри # 1:
мова: англійська (Full),
тип: програмні (м'які)
формат: *.srt


Info
Код:
General
Unique ID                                : 23573975690545446401691157608614430298 (0x11BC2EBCD8AF90E0EB18835AC0A9865A)
Complete name                            : F:\Video\Serenity (2005) 1080p H.265 [2xUKR_ENG] [Hurtom].
Format                                   :
Format version                           : Version 4 / Version 2
File size                                : 3.62 GiB
Duration                                 : 1 h 59 min
Overall bit rate                         : 4 359 kb/s
Movie name                               : Serenity (2005)
Encoded date                             : UTC 2019-02-27 11:55:50
Writing application                      : v20.0.0 ('I Am The Sun') 64-bit
Writing library                          : libebml v1.3.5 + v1.4.8
Cover                                    : Yes
Attachments                              : cover.jpg

Video
ID                                       : 1
Format                                   : HEVC
Format/Info                              : High Efficiency Video Coding
Format profile                           : Main [email protected]@Main
Codec ID                                 : V_MPEGH/ISO/HEVC
Duration                                 : 1 h 59 min
Bit rate                                 : 3 525 kb/s
Width                                    : 1 920 pixels
Height                                   : 818 pixels
Display aspect ratio                     : 2.35:1
Frame rate mode                          : Constant
Frame rate                               : 23.976 (24000/1001) FPS
Color space                              : YUV
Chroma subsampling                       : 4:2:0
Bit depth                                : 10 bits
Bits/(Pixel*Frame)                       : 0.094
Stream size                              : 2.93 GiB (81%)
Title                                    : Serenity (2005)
Writing library                          : x265 1.9:[Windows][GCC 4.9.2][64 bit] 10bit
Encoding settings                        : wpp / ctu=64 / min-cu-size=8 / max-tu-size=32 / tu-intra-depth=3 / tu-inter-depth=3 / me=3 / subme=4 / merange=57 / rect / amp / max-merge=4 / temporal-mvp / no-early-skip / rdpenalty=0 / no-tskip / no-tskip-fast / strong-intra-smoothing / no-lossless / no-cu-lossless / no-constrained-intra / no-fast-intra / open-gop / no-temporal-layers / interlace=0 / keyint=240 / min-keyint=24 / scenecut=40 / rc-lookahead=40 / lookahead-slices=0 / bframes=8 / bframe-bias=0 / b-adapt=2 / ref=5 / limit-refs=1 / limit-modes / weightp / weightb / aq-mode=1 / qg-size=32 / aq-strength=1.00 / cbqpoffs=0 / crqpoffs=0 / rd=6 / psy-rd=2.00 / rdoq-level=2 / psy-rdoq=1.00 / signhide / deblock / sao / no-sao-non-deblock / b-pyramid / cutree / no-intra-refresh / rc=crf / crf=20.5 / qcomp=0.60 / qpmin=0 / qpmax=51 / qpstep=4 / ipratio=1.40 / pbratio=1.30
Default                                  : Yes
Forced                                   : No
Color range                              : Limited
Color primaries                          : BT.709
Transfer characteristics                 : BT.709
Matrix coefficients                      : BT.709

Audio #1
ID                                       : 2
Format                                   : AC-3
Format/Info                              : Audio Coding 3
Codec ID                                 : A_AC3
Duration                                 : 1 h 59 min
Bit rate mode                            : Constant
Bit rate                                 : 192 kb/s
Channel(s)                               : 2 channels
Channel positions                        : Front: L R
Sampling rate                            : 48.0 kHz
Frame rate                               : 31.250 FPS (1536 SPF)
Bit depth                                : 16 bits
Compression mode                         : Lossy
Delay relative to video                  : -83 ms
Stream size                              : 163 MiB (4%)
Title                                    : БЗ - Cine+
Language                                 : Ukrainian
Service kind                             : Complete Main
Default                                  : Yes
Forced                                   : Yes

Audio #2
ID                                       : 3
Format                                   : AC-3
Format/Info                              : Audio Coding 3
Codec ID                                 : A_AC3
Duration                                 : 1 h 59 min
Bit rate mode                            : Constant
Bit rate                                 : 192 kb/s
Channel(s)                               : 2 channels
Channel positions                        : Front: L R
Sampling rate                            : 48.0 kHz
Frame rate                               : 31.250 FPS (1536 SPF)
Bit depth                                : 16 bits
Compression mode                         : Lossy
Delay relative to video                  : -83 ms
Stream size                              : 163 MiB (4%)
Title                                    : БЗ - Kanal Ukraina
Language                                 : Ukrainian
Service kind                             : Complete Main
Default                                  : No
Forced                                   : No

Audio #3
ID                                       : 4
Format                                   : AC-3
Format/Info                              : Audio Coding 3
Codec ID                                 : A_AC3
Duration                                 : 1 h 59 min
Bit rate mode                            : Constant
Bit rate                                 : 448 kb/s
Channel(s)                               : 6 channels
Channel positions                        : Front: L C R, Side: L R, LFE
Sampling rate                            : 48.0 kHz
Frame rate                               : 31.250 FPS (1536 SPF)
Bit depth                                : 16 bits
Compression mode                         : Lossy
Delay relative to video                  : -83 ms
Stream size                              : 381 MiB (10%)
Title                                    : Original
Language                                 : English
Service kind                             : Complete Main
Default                                  : No
Forced                                   : No

Text
ID                                       : 5
Format                                   : UTF-8
Codec ID                                 : S_TEXT/UTF8
Codec ID/Info                            : UTF-8 Plain Text
Duration                                 : 1 h 52 min
Bit rate                                 : 59 b/s
Count of elements                        : 1635
Stream size                              : 49.6 KiB (0%)
Title                                    : Full
Language                                 : English
Default                                  : No
Forced                                   : No

Menu
00:00:00.000                             : :01 - 00:00:00 - fr:Une arme vivante - en:Living Weapon
00:05:01.759                             : :02 - 00:05:01 - fr:Un monde meilleur - en:A Better World
00:09:32.446                             : :03 - 00:09:32 - fr:À bord de la Sérénity - en:Aboard Serenity
00:14:50.097                             : :04 - 00:14:50 - fr:Un petit tour - en:Going For a Ride
00:19:50.856                             : :05 - 00:19:50 - fr:Reavers - en:Reavers
00:29:14.002                             : :06 - 00:29:14 - fr:Déclencheur - en:Triggered
00:36:19.260                             : :07 - 00:36:19 - fr:Mr Universe - en:Mr. Universe
00:44:10.272                             : :08 - 00:44:10 - fr:Haven - en:Safe Haven
00:49:55.701                             : :09 - 00:49:55 - fr:Solution civilisée - en:Civilized Resolution
00:55:45.050                             : :10 - 00:55:45 - fr:La menace - en:Posing a Threat
00:59:29.315                             : :11 - 00:59:29 - fr:Miranda - en:Miranda
01:04:46.257                             : :12 - 01:04:46 - fr:Juste croire - en:Just Believe
01:09:14.733                             : :13 - 01:09:14 - fr:Mission suicide - en:Suicide Mission
01:13:34.785                             : :14 - 01:13:34 - fr:Le secret - en:Learning the Secret
01:22:39.579                             : :15 - 01:22:39 - fr:Entre deux feux - en:Caught in the Middle
01:30:19.580                             : :16 - 01:30:19 - fr:Diffusion générale - en:Can't Stop the Signal
01:36:58.479                             : :17 - 01:36:58 - fr:Pour ce que l'on crois - en:Fighting For a Belief
01:45:57.726                             : :18 - 01:45:57 - fr:Nouvel ordre - en:Do We Have an Order ?
01:47:38.118                             : :19 - 01:47:38 - fr:Ce n'est pas fini - en:It's Not Over
01:53:22.670                             : :20 - 01:53:22 - fr:Générique - en:End Titles
Світлини





Джерело: &
Особиста оцінка: 0 - не дивився


 Трекер:    Зареєстрований   

Завантажити / скачати фільм українською



відео для новачків



 Зареєстрований:   2019-02-27 15:18
 Розмір:   3.62 GB 
 Оцінка фільму:   8.6/10 (Голосів: 18)
   
Інші релізи
   Місія Сереніті / Serenity (2005) AVC 2xUkr/Eng | Sub Eng Sando7  13 / 0   2.52 GB   2019-01-17 16:30 
   Місія Сереніті / Serenity (2005) Remux Ukr/Eng | Sub Eng demotyvator  1 / 0   21.35 GB   2015-04-23 15:29 
   Місія Сереніті / Serenity (2005) patriot2305  6 / 0   1.3 GB   2013-09-01 16:05 
   Місія Сереніті / Serenity (2005) 720p Ukr/Eng | Sub Eng pohgejib  8 / 0   4.81 GB   2011-02-21 17:26 
takispravi 
Свій


З нами з: 24.10.13
Востаннє: 17.07.19
Повідомлень: 59

2018-09-14 14:02  
дуже достойний фільм.
"Міранда!"

0mage0 
VIP


З нами з: 06.10.15
Востаннє: 19.07.19
Повідомлень: 468

2018-11-21 16:31  
Гарний фільм, звісно, хотілося б побачити другий сезон серіалу, але маємо те, що маємо.
Власне, починаєш розуміти, що це кінець серіалу коли герої починають помирати Sad (1)
Раджу спочатку подивитися серіал https://toloka.to/t37653
Не розумію, чому змінили наголос у слові Сереніті. Завжди вона була СерЕніті, а тут стала СеренІті...

Sepulina 
Новенький


З нами з: 02.03.16
Востаннє: 19.07.19
Повідомлень: 1

2018-11-21 22:11  
Цитата:
Раджу спочатку подивитися серіал https://toloka.to/t37653


А в кінці я б порадив серіал "Con Man" з Аланом Тьюдіком у головній Happy

Anonymous 







2019-02-27 15:19  
Додано доріжку від

Ваш часовий пояс: GMT + 2 Години

Нова тема   Відповісти