Монстри / Monsters (2010) 1080p H.265 Ukr/Eng | Sub Fre

Нові коментарі

Нова тема   Відповісти
Автор Повідомлення
-Star-Lord- 
Поважний учасник


З нами з: 09.08.18
Востаннє: 17.10.18
Повідомлень: 197

2018-09-10 11:08  
Монстри / Monsters (2010) 1080p H.265 Ukr/Eng | Sub Fre

Монстри / Monsters (2010) 1080p H.265 Ukr/Eng | Sub Fre


Жанр: драма, фантастика, трилер
Країна: Великобританія



Кінокомпанія: Vertigo Films
Режисер: Ґарет Едвардс / Gareth Edwards
Актори: Скот МакНейрі / Scoot McNairy, Вітні Ебл / Whitney Able, Анналі Джефріз / Annalee Jefferies, Джастін Голл / Justin Hall, Рікі Каттер / Ricky Catter, Керрі Волдерема / Kerry Valderrama, Стен Вонґ / Stan Wong та інші

Сюжет:
Дія розгортається через шість років після того, як супутник NASA впав десь в Центральній Америці, перетворивши пів Мексики в карантинну зону. Сюжет слідує за американським журналістом, що погодився супроводжувати туриста через заражену зону до безпечних кордонів США.


Тривалість: 01:34:00
Якість:
Відео:
кодек: H.265 (HEVC)
розмір кадру: 1920 х 816
бітрейт: 3 188 кб/с
бітова глибина: 10 біт
Увага! Перед завантаженням переконайтесь, що ваш пристрій відтворення (та/або ПЗ) підтримує H.265 (HEVC)

Аудіо # 1:
мова: українська
переклад: багатоголосий закадровий
кодек: 2.0
бітрейт: 192 кб/с

Аудіо # 2:
мова: англійська
переклад: оригінал
кодек: E- 5.1
бітрейт: 448 кб/с

Субтитри # 1-2:
мова: французька (Forced, Full)
тип: програмні (м'які)
формат: *.srt


Info
Код:
General
Unique ID                                : 119781110768817339362851288119632893851 (0x5A1D00B782F062EFDA687AC9A682979B)
Complete name                            : F:\Video\Monsters (2010) 1080p H.265 [UKR_ENG].
Format                                   :
Format version                           : Version 4 / Version 2
File size                                : 2.52 GiB
Duration                                 : 1 h 34 min
Overall bit rate                         : 3 836 kb/s
Movie name                               : Monsters (2010)]
Encoded date                             : UTC 2018-09-06 19:44:32
Writing application                      : v20.0.0 ('I Am The Sun') 32-bit
Writing library                          : libebml v1.3.5 + v1.4.8
Cover                                    : Yes
Attachments                              : cover.png

Video
ID                                       : 1
Format                                   : HEVC
Format/Info                              : High Efficiency Video Coding
Format profile                           : Main [email protected]@Main
Codec ID                                 : V_MPEGH/ISO/HEVC
Duration                                 : 1 h 34 min
Bit rate                                 : 3 188 kb/s
Width                                    : 1 920 pixels
Height                                   : 816 pixels
Display aspect ratio                     : 2.35:1
Frame rate mode                          : Constant
Frame rate                               : 23.976 (24000/1001) FPS
Color space                              : YUV
Chroma subsampling                       : 4:2:0
Bit depth                                : 10 bits
Bits/(Pixel*Frame)                       : 0.085
Stream size                              : 2.09 GiB (83%)
Writing library                          : x265 1.9:[Windows][GCC 4.9.2][64 bit] 10bit
Encoding settings                        : wpp / ctu=64 / min-cu-size=8 / max-tu-size=32 / tu-intra-depth=2 / tu-inter-depth=2 / me=3 / subme=3 / merange=57 / rect / amp / max-merge=3 / temporal-mvp / no-early-skip / rdpenalty=0 / no-tskip / no-tskip-fast / strong-intra-smoothing / no-lossless / no-cu-lossless / no-constrained-intra / no-fast-intra / open-gop / no-temporal-layers / interlace=0 / keyint=240 / min-keyint=24 / scenecut=40 / rc-lookahead=30 / lookahead-slices=4 / bframes=8 / bframe-bias=0 / b-adapt=2 / ref=4 / limit-refs=2 / limit-modes / weightp / weightb / aq-mode=1 / qg-size=32 / aq-strength=1.00 / cbqpoffs=0 / crqpoffs=0 / rd=6 / psy-rd=2.00 / rdoq-level=2 / psy-rdoq=1.00 / signhide / deblock / sao / no-sao-non-deblock / b-pyramid / cutree / no-intra-refresh / rc=crf / crf=20.0 / qcomp=0.60 / qpmin=0 / qpmax=51 / qpstep=4 / ipratio=1.40 / pbratio=1.30
Default                                  : Yes
Forced                                   : No
Color range                              : Limited
Color primaries                          : BT.709
Transfer characteristics                 : BT.709
Matrix coefficients                      : BT.709

Audio #1
ID                                       : 2
Format                                   : AC-3
Format/Info                              : Audio Coding 3
Codec ID                                 : A_AC3
Duration                                 : 1 h 33 min
Bit rate mode                            : Constant
Bit rate                                 : 192 kb/s
Channel(s)                               : 2 channels
Channel positions                        : Front: L R
Sampling rate                            : 48.0 kHz
Frame rate                               : 31.250 FPS (1536 SPF)
Bit depth                                : 16 bits
Compression mode                         : Lossy
Delay relative to video                  : 7 s 417 ms
Stream size                              : 129 MiB (5%)
Title                                    : NLO
Language                                 : Ukrainian
Service kind                             : Complete Main
Default                                  : Yes
Forced                                   : No

Audio #2
ID                                       : 3
Format                                   : E-AC-3
Format/Info                              : Enhanced Audio Coding 3
Codec ID                                 : A_EAC3
Duration                                 : 1 h 34 min
Bit rate mode                            : Constant
Bit rate                                 : 448 kb/s
Channel(s)                               : 6 channels
Channel positions                        : Front: L C R, Side: L R, LFE
Sampling rate                            : 48.0 kHz
Frame rate                               : 187.500 FPS (256 SPF)
Compression mode                         : Lossy
Delay relative to video                  : -5 ms
Stream size                              : 301 MiB (12%)
Title                                    : English 5.1 EAC3 448kbps 48khz 16bits
Language                                 : English
Service kind                             : Complete Main
Default                                  : No
Forced                                   : No

Text #1
ID                                       : 4
Format                                   : UTF-8
Codec ID                                 : S_TEXT/UTF8
Codec ID/Info                            : UTF-8 Plain Text
Duration                                 : 59 min 39 s
Bit rate                                 : 6 b/s
Count of elements                        : 114
Stream size                              : 2.89 KiB (0%)
Title                                    : Forced
Language                                 : French
Default                                  : No
Forced                                   : No

Text #2
ID                                       : 5
Format                                   : UTF-8
Codec ID                                 : S_TEXT/UTF8
Codec ID/Info                            : UTF-8 Plain Text
Duration                                 : 1 h 33 min
Bit rate                                 : 29 b/s
Count of elements                        : 781
Stream size                              : 20.6 KiB (0%)
Title                                    : Full
Language                                 : French
Default                                  : No
Forced                                   : No

Menu
00:00:00.000                             : :01 - 00:00:00
00:10:10.527                             : :02 - 00:10:10
00:21:02.428                             : :03 - 00:21:02
00:31:24.966                             : :04 - 00:31:24
00:37:30.748                             : :05 - 00:37:30
00:48:55.933                             : :06 - 00:48:55
00:55:14.102                             : :07 - 00:55:14
01:02:25.408                             : :08 - 01:02:25
01:11:48.179                             : :09 - 01:11:48
01:18:20.571                             : :10 - 01:18:20
01:23:37.554                             : :11 - 01:23:37
01:30:49.444                             : :12 - 01:30:49
Скріншоти




Джерело:
Особиста оцінка: 0 - не дивився


 Трекер:    Зареєстрований   

Завантажити / скачати фільм українською



відео для новачків



 Зареєстрований:   2018-09-10 11:08
 Розмір:   2.52 GB 
 Оцінка фільму:   10/10 (Голосів: 3)
   
Інші релізи
   Монстри / Monsters (2010) Ukr/Eng patriot2305  3 / 0   1.46 GB   2013-10-05 22:46 
Ваш часовий пояс: GMT + 2 Години

Нова тема   Відповісти