Райське озеро / Eden Lake (2008) 1080p Ukr/Eng | Sub Eng

Нові коментарі

Нова тема   Відповісти
Автор Повідомлення
staf777 
Попереджень: 1
Попереджень: 1 


З нами з: 16.11.16
Востаннє: 19.12.18
Повідомлень: 1940

2018-09-09 20:12  
Райське озеро / Eden Lake (2008) 1080p Ukr/Eng | Sub Eng

Райське озеро / Eden Lake (2008) 1080p Ukr/Eng | Sub Eng
Оригінальна обкладинка

Райське озеро / Eden Lake (2008) 1080p Ukr/Eng | Sub Eng
Жанр: жахи, трилер, кримінальний
Країна: Велика Британія



Кіностудія / кінокомпанія: Rollercoaster Films, Aramid Entertainment Fund
Режисер: Джеймс Воткінс
Актори: Келлі Райллі, Майкл Фассбендер, Тара Елліс, Джек О’Коннелл, Фінн Аткінс, Джумейн Хантер, Томас Тургус, Джеймс Берроуз, Томас Гілл, Лоррейн Брюс та інші

Сюжет:
Молода парочка їде за місто, щоб провести романтичний вікенд на березі Райського озера далеко від людей, в дикому лісі. Стів і Дженні планують одружитися, прожити довго і померти в один день. Ніхто з них не думав, чим закінчиться ця поїздка.


Тривалість: 01:30:57
Якість: 1080p
Відео:
кодек:
розмір кадру: 1920x816
бітрейт: 13.3 Mбіт/сек

Аудіо # 1:
мова: українська
переклад: двоголосий закадровий
кодек: 2.0
бітрейт: 192 Кбіт/сек

Аудіо # 2:
мова: англійська
переклад: оригінал
кодек: 5.1
бітрейт: 1509 Кбіт/сек

Джерело озвучення:


Субтитри # 1-2:
мова: англійська
тип: програмні (м'які)
формат: *.srt

Info
Код:
General
Unique ID                   : 41786629339004532122168693771788594590 (0x1F6FCFE3F1AC16398CF31618DD6FAD9E)
Complete name               : S:\Eden Lake (2008) 1080p [UKR_ENG] [Hurtom].
Format                      :
Format version              : Version 4 / Version 2
File size                   : 9.54 GiB
Duration                    : 1 h 30 min
Overall bit rate            : 15.0 Mb/s
Movie name                  :  Eden Lake (2008) 1080p [UKR_ENG] [Hurtom]
Encoded date                : UTC 2018-09-09 17:37:39
Writing application         : v24.0.0 ('Beyond The Pale') 64-bit
Writing library             : libebml v1.3.6 + v1.4.9
Attachments                 : Eden Lake.jpg

Video
ID                          : 1
Format                      : AVC
Format/Info                 : Advanced Video Codec
Format profile              : [email protected]
Format settings             : CABAC / 5 Ref Frames
Format settings, CABAC      : Yes
Format settings, ReFrames   : 5 frames
Codec ID                    : V_MPEG4/ISO/AVC
Duration                    : 1 h 30 min
Bit rate                    : 13.3 Mb/s
Width                       : 1 920 pixels
Height                      : 816 pixels
Display aspect ratio        : 2.35:1
Frame rate mode             : Constant
Frame rate                  : 24.000 FPS
Color space                 : YUV
Chroma subsampling          : 4:2:0
Bit depth                   : 8 bits
Scan type                   : Progressive
Bits/(Pixel*Frame)          : 0.354
Stream size                 : 8.46 GiB (89%)
Title                       : Eden Lake
Writing library             : core 128 r2216kMod 198a7ea
Encoding settings           : cabac=1 / ref=5 / deblock=1:-3:-3 / analyse=0x3:0x133 / me=umh / subme=11 / psy=1 / fade_compensate=0.00 / psy_rd=1.10:0.00 / mixed_ref=1 / me_range=48 / chroma_me=1 / trellis=2 / 8x8dct=1 / cqm=0 / deadzone=21,11 / fast_pskip=0 / chroma_qp_offset=-2 / threads=6 / lookahead_threads=1 / sliced_threads=0 / nr=0 / decimate=1 / interlaced=0 / bluray_compat=0 / constrained_intra=0 / bframes=8 / b_pyramid=2 / b_adapt=2 / b_bias=0 / direct=3 / weightb=1 / open_gop=0 / weightp=2 / keyint=240 / keyint_min=24 / scenecut=40 / intra_refresh=0 / rc_lookahead=60 / rc=crf / mbtree=0 / crf=18.0000 / qcomp=0.75 / qpmin=0 / qpmax=69 / qpstep=4 / vbv_maxrate=50000 / vbv_bufsize=62500 / crf_max=0.0 / nal_hrd=none / ip_ratio=1.40 / pb_ratio=1.20 / aq=1:0.60
Language                    : English
Default                     : Yes
Forced                      : No
Color range                 : Limited
Matrix coefficients         : BT.709

Audio #1
ID                          : 2
Format                      : AC-3
Format/Info                 : Audio Coding 3
Codec ID                    : A_AC3
Duration                    : 1 h 30 min
Bit rate mode               : Constant
Bit rate                    : 192 kb/s
Channel(s)                  : 2 channels
Channel positions           : Front: L R
Sampling rate               : 48.0 kHz
Frame rate                  : 31.250 FPS (1536 SPF)
Bit depth                   : 16 bits
Compression mode            : Lossy
Stream size                 : 125 MiB (1%)
Title                       : [UA-DVO-1+1]
Language                    : Ukrainian
Service kind                : Complete Main
Default                     : Yes
Forced                      : Yes

Audio #2
ID                          : 3
Format                      :
Format/Info                 : Digital Theater Systems
Codec ID                    : A_DTS
Duration                    : 1 h 30 min
Bit rate mode               : Constant
Bit rate                    : 1 509 kb/s
Channel(s)                  : 6 channels
Channel positions           : Front: L C R, Side: L R, LFE
Sampling rate               : 48.0 kHz
Frame rate                  : 93.750 FPS (512 SPF)
Bit depth                   : 24 bits
Compression mode            : Lossy
Stream size                 : 982 MiB (10%)
Language                    : English
Default                     : No
Forced                      : No

Text #1
ID                          : 4
Format                      : UTF-8
Codec ID                    : S_TEXT/UTF8
Codec ID/Info               : UTF-8 Plain Text
Duration                    : 1 h 24 min
Bit rate                    : 33 b/s
Count of elements           : 677
Stream size                 : 20.8 KiB (0%)
Language                    : English
Default                     : No
Forced                      : No

Text #2
ID                          : 5
Format                      : UTF-8
Codec ID                    : S_TEXT/UTF8
Codec ID/Info               : UTF-8 Plain Text
Duration                    : 1 h 25 min
Bit rate                    : 32 b/s
Count of elements           : 736
Stream size                 : 20.4 KiB (0%)
Title                       : SDH
Language                    : English
Default                     : No
Forced                      : No

Menu
00:00:00.000                : en:Chapter 1
00:06:49.000                : en:Chapter 2
00:20:38.416                : en:Chapter 3
00:26:03.416                : en:Chapter 4
00:36:19.000                : en:Chapter 5
00:47:31.083                : en:Chapter 6
00:56:03.541                : en:Chapter 7
01:02:51.000                : en:Chapter 8
01:06:56.458                : en:Chapter 9
01:12:45.000                : en:Chapter 10
01:20:52.207                : en:Chapter 11
01:26:29.416                : en:Chapter 12
Скріншоти




Синхронізація української доріжки Arsenfpu ,
запис звуку з ТБ Bohdan237 ,
українізація постера bilenkuyboy


Джерело:
Особиста оцінка: 8 - мені сподобалося
Райське озеро / Eden Lake (2008) 1080p Ukr/Eng | Sub Eng


 Трекер:    Зареєстрований   

Завантажити / скачати фільм українською



відео для новачків



 Зареєстрований:   2018-09-09 21:40
 Розмір:   9.54 GB 
 Оцінка фільму:   9.3/10 (Голосів: 3)
   
Інші релізи
   Райське озеро / Eden Lake (2008) 1080p H.265 Ukr/Eng | sub Eng ukr_anonymous  2 / 0   3.77 GB   2018-07-11 09:22 
   Райське озеро / Eden Lake (2008) Remux 1080p Ukr/Eng | Sub Eng IronBee  1 / 0   14.14 GB   2017-08-05 09:10 
   Райське озеро / Eden Lake (2008) Ukr/Eng Arsenfpu  5 / 0   1.58 GB   2017-07-31 17:01 
   Райське озеро / Eden Lake (2008) Remux 1080p Ukr/Eng | Sub Eng staf777  1 / 1   14.3 GB   2017-02-17 13:26 
   Райське озеро / Eden Lake (2008) 720p Ukr/Eng | sub Eng pykaaaa  0 / 0   4.64 GB   2012-04-29 21:52 
   Райське озеро / Eden Lake (2008) Ukr/Eng | sub Eng JACKUS  4 / 0   1.74 GB   2011-03-21 00:40 
antik_2008 
Релізер і модератор відео


З нами з: 20.10.08
Востаннє: 19.12.18
Повідомлень: 1697

2018-09-09 20:28  
Гарний фільм.
bot 
робот


З нами з: 30.09.07
Востаннє: 26.05.05
Повідомлень: 20375

2018-09-09 21:40  
Тему перенесено з Анонси релізів до форуму Фільми в HD


staf777

Ergo Proxy 
Свій


З нами з: 22.05.12
Востаннє: 18.12.18
Повідомлень: 73

2018-09-09 23:04  
Постер: "Однин.."?
Maters 
VIP


З нами з: 27.03.12
Востаннє: 18.12.18
Повідомлень: 1571

2018-09-09 23:08  
Туфтовий фільм
Ваш часовий пояс: GMT + 2 Години

Нова тема   Відповісти