Філадельфійський експеримент / The Philadelphia Experiment (1984) 1080p 2xUkr/Eng | Sub Eng

Нові коментарі

Нова тема   Відповісти
Автор Повідомлення
staf777 
Попереджень: 1
Попереджень: 1 


З нами з: 16.11.16
Востаннє: 21.10.18
Повідомлень: 1648

2018-09-09 19:03  
Філадельфійський експеримент / The Philadelphia Experiment (1984) 1080p 2xUkr/Eng | Sub Eng

Філадельфійський експеримент / The Philadelphia Experiment (1984) 1080p 2xUkr/Eng | Sub Eng
Українізований постер від abodnya:



Жанр: пригодницький, детектив, фантастика, трилер
Країна: США



Кінокомпанія: Cinema Group Ventures, New Pictures
Режисер: Стюарт Реффіл
Актори: Майкл Паре, Ненсі Аллен, Боббі Ді Чікко, Ерік Крістмас, Кін Голідей, Луїз Летем, Джо Дорсі, Майкл Каррі, Стівен Тоболовські, Гері Брокетт

Сюжет:
Друга світова війна. Випробовується обладнання, яке робить американські військові кораблі невидимими для радарів супротивника. Під час цих дослідів зникає один бойовий корабель, а два моряка виявляються закинутими у 1984 рік....


Тривалість: 01:41:11
Якість: 1080p
[b]Відео:

кодек:
розмір кадру: 1920x1080
бітрейт: 10,4 Mб/с

Аудіо # 1:
мова: українська
переклад: двоголосий закадровий
кодек: 2.0
бітрейт: 192 кб/с

Аудіо # 2:
мова: українська
переклад: двоголосий закадровий
кодек: 2.0
бітрейт: 192 кб/с

Аудіо # 3:
мова: англійська
переклад: оригінал
кодек: 5.1
бітрейт: 448 кб/с

Субтитри:
мова: англійська
тип: програмні (м'які)
формат: *.srt
Info
General
Unique ID : 111583326476150416319267760937095022821 (0x53F22ABEE79E9286E0571B0DE3E248E5)
Complete name : S:\The Philadelphia Experiment (1984) 1080p [2xUA][ENG][Hurtom].
Format :
Format version : Version 4 / Version 2
File size : 7.92 GiB
Duration : 1 h 41 min
Overall bit rate : 11.2 Mb/s
Movie name : The Philadelphia Experiment (1984) 1080p [2xUA][ENG][Hurtom]
Encoded date : UTC 2018-09-10 18:00:56
Writing application : v24.0.0 ('Beyond The Pale') 64-bit
Writing library : libebml v1.3.6 + v1.4.9
Cover : Yes
Attachments : poster.jpg / cover.jpg

Video
ID : 1
Format : AVC
Format/Info : Advanced Video Codec
Format profile : [email protected]
Format settings : CABAC / 4 Ref Frames
Format settings, CABAC : Yes
Format settings, ReFrames : 4 frames
Codec ID : V_MPEG4/ISO/AVC
Duration : 1 h 41 min
Bit rate : 10.4 Mb/s
Width : 1 920 pixels
Height : 1 080 pixels
Display aspect ratio : 16:9
Frame rate mode : Constant
Frame rate : 23.976 (24000/1001) FPS
Color space : YUV
Chroma subsampling : 4:2:0
Bit depth : 8 bits
Scan type : Progressive
Bits/(Pixel*Frame) : 0.209
Stream size : 7.33 GiB (93%)
Writing library : core 142 r2431 ac76440
Encoding settings : cabac=1 / ref=4 / deblock=1:-3:-3 / analyse=0x3:0x133 / me=umh / subme=8 / psy=1 / psy_rd=1.00:0.15 / mixed_ref=1 / me_range=16 / chroma_me=1 / trellis=1 / 8x8dct=1 / cqm=0 / deadzone=21,11 / fast_pskip=0 / chroma_qp_offset=-3 / threads=12 / lookahead_threads=2 / sliced_threads=0 / nr=0 / decimate=1 / interlaced=0 / bluray_compat=0 / constrained_intra=0 / bframes=3 / b_pyramid=2 / b_adapt=2 / b_bias=0 / direct=3 / weightb=1 / open_gop=0 / weightp=2 / keyint=240 / keyint_min=23 / scenecut=40 / intra_refresh=0 / rc_lookahead=50 / rc=2pass / mbtree=1 / bitrate=10372 / ratetol=1.0 / qcomp=0.60 / qpmin=0 / qpmax=69 / qpstep=4 / cplxblur=20.0 / qblur=0.5 / ip_ratio=1.40 / aq=1:1.00
Language : English
Default : Yes
Forced : No

Audio #1
ID : 2
Format : AC-3
Format/Info : Audio Coding 3
Codec ID : A_AC3
Duration : 1 h 41 min
Bit rate mode : Constant
Bit rate : 192 kb/s
Channel(s) : 2 channels
Channel positions : Front: L R
Sampling rate : 48.0 kHz
Frame rate : 31.250 FPS (1536 SPF)
Bit depth : 16 bits
Compression mode : Lossy
Stream size : 139 MiB (2%)
Title : DVO (НТН)
Language : Ukrainian
Service kind : Complete Main
Default : Yes
Forced : Yes

Audio #2
ID : 3
Format : AC-3
Format/Info : Audio Coding 3
Codec ID : A_AC3
Duration : 1 h 41 min
Bit rate mode : Constant
Bit rate : 192 kb/s
Channel(s) : 2 channels
Channel positions : Front: L R
Sampling rate : 48.0 kHz
Frame rate : 31.250 FPS (1536 SPF)
Bit depth : 16 bits
Compression mode : Lossy
Stream size : 139 MiB (2%)
Title : DVO (1+1)
Language : Ukrainian
Service kind : Complete Main
Default : No
Forced : No

Audio #3
ID : 4
Format : AC-3
Format/Info : Audio Coding 3
Codec ID : A_AC3
Duration : 1 h 41 min
Bit rate mode : Constant
Bit rate : 448 kb/s
Channel(s) : 6 channels
Channel positions : Front: L C R, Side: L R, LFE
Sampling rate : 48.0 kHz
Frame rate : 31.250 FPS (1536 SPF)
Bit depth : 16 bits
Compression mode : Lossy
Stream size : 324 MiB (4%)
Title : Original
Language : English
Service kind : Complete Main
Default : No
Forced : No

Text
ID : 5
Format : UTF-8
Codec ID : S_TEXT/UTF8
Codec ID/Info : UTF-8 Plain Text
Duration : 1 h 36 min
Bit rate : 51 b/s
Count of elements : 879
Stream size : 36.1 KiB (0%)
Language : English
Default : No
Forced : No

Menu
00:00:00.000 : en:00:00:00.000
00:00:00.375 : en:00:00:00.375
00:14:51.140 : en:00:14:51.140
00:29:22.844 : en:00:29:22.844
00:45:07.788 : en:00:45:07.788
00:59:55.175 : en:00:59:55.175
01:15:17.596 : en:01:15:17.596
01:26:03.325 : en:01:26:03.325
01:37:33.389 : en:01:37:33.389
Скріншоти




Джерело: &
Особиста оцінка: 0 - не дивився


Срібний реліз (на рейтинг впливає 50% завантаженого)
 Трекер:    Зареєстрований   

Завантажити / скачати фільм українською



відео для новачків



 Зареєстрований:   2018-09-10 21:53
 Розмір:   7.92 GB 
 Оцінка фільму:   10/10 (Голосів: 3)
   
bot 
робот


З нами з: 30.09.07
Востаннє: 26.05.05
Повідомлень: 19984

2018-09-10 21:52  
Тему перенесено з Анонси релізів до форуму Фільми в HD


staf777

Custo 12 
Свій


З нами з: 08.11.16
Востаннє: 21.10.18
Повідомлень: 66

2018-09-11 16:53  
Уууух! Клясіка!!! Малим ходив і ходив на нього, сеанс за сеансом!
ros21 
Свій


З нами з: 14.01.11
Востаннє: 21.10.18
Повідомлень: 62

2018-09-11 21:56  
Custo 12
Аналогічно!!!

Ваш часовий пояс: GMT + 2 Години

Нова тема   Відповісти