Філадельфійський експеримент / The Philadelphia Experiment (1984) 720p 2xUkr/Eng | Sub Eng

Нові коментарі

Нова тема   Відповісти
Автор Повідомлення
staf777 
Попереджень: 1
Попереджень: 1 


З нами з: 16.11.16
Востаннє: 16.10.18
Повідомлень: 1632

2018-09-09 10:38  
Філадельфійський експеримент / The Philadelphia Experiment (1984) 720p 2xUkr/Eng | Sub Eng

Філадельфійський експеримент / The Philadelphia Experiment (1984) 720p 2xUkr/Eng | Sub Eng
Українізований постер від abodnya:



Жанр: пригодницький, детектив, фантастика, трилер
Країна: США



Кінокомпанія: Cinema Group Ventures, New Pictures
Режисер: Стюарт Реффіл
Актори: Майкл Паре, Ненсі Аллен, Боббі Ді Чікко, Ерік Крістмас, Кін Голідей, Луїз Летем, Джо Дорсі, Майкл Каррі, Стівен Тоболовські, Гері Брокетт

Сюжет:
Друга світова війна. Випробовується обладнання, яке робить американські військові кораблі невидимими для радарів противника. Під час цих дослідів зникає один бойовий корабель, а два моряка виявляються закинутими у 1984 рік...


Тривалість: 01:41:11
Якість: 720p
Відео:
кодек:
розмір кадру: 1280x720
бітрейт: 8500 кб/с

Аудіо # 1:
мова: українська
переклад: двоголосий закадровий
кодек: 2.0
бітрейт: 192 кб/с

Аудіо # 2:
мова: українська
переклад: двоголосий закадровий
кодек: 2.0
бітрейт: 192 кб/с

Аудіо # 3:
мова: англійська
переклад: оригінал
кодек: 5.1
бітрейт: 448 кб/с

Субтитри:
мова: англійська
тип: програмні (м'які)
формат: *.srt
Info
General
Unique ID : 53311049983108192705275696129826897707 (0x281B55B25E0882B185B6E0BD52AC3F2B)
Complete name : S:\Фільми в HD\Фантастика\The Philadelphia Experiment (1984) 720p [2xUA][ENG][Hurtom].
Format :
Format version : Version 4 / Version 2
File size : 6.60 GiB
Duration : 1 h 41 min
Overall bit rate : 9 329 kb/s
Movie name : The Philadelphia Experiment (1984) 720p [2xUA][ENG][Hurtom]
Encoded date : UTC 2018-09-09 16:40:31
Writing application : v24.0.0 ('Beyond The Pale') 64-bit
Writing library : libebml v1.3.6 + v1.4.9
Cover : Yes
Attachments : cover.jpg

Video
ID : 1
Format : AVC
Format/Info : Advanced Video Codec
Format profile : [email protected]
Format settings : CABAC / 9 Ref Frames
Format settings, CABAC : Yes
Format settings, ReFrames : 9 frames
Codec ID : V_MPEG4/ISO/AVC
Duration : 1 h 41 min
Bit rate : 8 500 kb/s
Width : 1 280 pixels
Height : 720 pixels
Display aspect ratio : 16:9
Frame rate mode : Constant
Frame rate : 23.976 (24000/1001) FPS
Color space : YUV
Chroma subsampling : 4:2:0
Bit depth : 8 bits
Scan type : Progressive
Bits/(Pixel*Frame) : 0.385
Stream size : 6.01 GiB (91%)
Title : MediaClub
Writing library : core 142 r2431+42 c69a006 tMod [[email protected]:2:0 X86_64]
Encoding settings : cabac=1 / ref=9 / deblock=1:-3:-3 / analyse=0x3:0x113 / me=umh / subme=11 / psy=1 / fade_compensate=0.00 / psy_rd=1.00:0.20 / mixed_ref=1 / me_range=32 / chroma_me=1 / trellis=2 / 8x8dct=1 / cqm=0 / deadzone=21,11 / fast_pskip=0 / chroma_qp_offset=-3 / threads=12 / lookahead_threads=3 / sliced_threads=0 / nr=0 / decimate=0 / interlaced=0 / bluray_compat=0 / constrained_intra=0 / fgo=0 / bframes=12 / b_pyramid=2 / b_adapt=2 / b_bias=0 / direct=3 / weightb=1 / open_gop=0 / weightp=2 / keyint=240 / keyint_min=23 / scenecut=40 / intra_refresh=0 / rc=2pass / mbtree=0 / bitrate=8500 / ratetol=1.0 / qcomp=0.60 / qpmin=0:0:0 / qpmax=69:69:69 / qpstep=4 / cplxblur=20.0 / qblur=0.5 / ip_ratio=1.40 / pb_ratio=1.30 / aq=4:0.80 / aq-sensitivity=10.00 / aq-factor=1.00:1.00:1.00 / aq2=0 / aq3=0
Language : German
Default : Yes
Forced : No

Audio #1
ID : 2
Format : AC-3
Format/Info : Audio Coding 3
Codec ID : A_AC3
Duration : 1 h 41 min
Bit rate mode : Constant
Bit rate : 192 kb/s
Channel(s) : 2 channels
Channel positions : Front: L R
Sampling rate : 48.0 kHz
Frame rate : 31.250 FPS (1536 SPF)
Bit depth : 16 bits
Compression mode : Lossy
Stream size : 139 MiB (2%)
Title : DVO (НТН)
Language : Ukrainian
Service kind : Complete Main
Default : Yes
Forced : Yes

Audio #2
ID : 3
Format : AC-3
Format/Info : Audio Coding 3
Codec ID : A_AC3
Duration : 1 h 41 min
Bit rate mode : Constant
Bit rate : 192 kb/s
Channel(s) : 2 channels
Channel positions : Front: L R
Sampling rate : 48.0 kHz
Frame rate : 31.250 FPS (1536 SPF)
Bit depth : 16 bits
Compression mode : Lossy
Stream size : 139 MiB (2%)
Title : DVO (1+1)
Language : Ukrainian
Service kind : Complete Main
Default : No
Forced : No

Audio #3
ID : 4
Format : AC-3
Format/Info : Audio Coding 3
Codec ID : A_AC3
Duration : 1 h 41 min
Bit rate mode : Constant
Bit rate : 448 kb/s
Channel(s) : 6 channels
Channel positions : Front: L C R, Side: L R, LFE
Sampling rate : 48.0 kHz
Frame rate : 31.250 FPS (1536 SPF)
Bit depth : 16 bits
Compression mode : Lossy
Stream size : 324 MiB (5%)
Title : Original
Language : English
Service kind : Complete Main
Default : No
Forced : No

Text
ID : 5
Format : UTF-8
Codec ID : S_TEXT/UTF8
Codec ID/Info : UTF-8 Plain Text
Duration : 1 h 36 min
Bit rate : 51 b/s
Count of elements : 855
Stream size : 36.1 KiB (0%)
Title : Full
Language : English
Default : No
Forced : No

Menu
00:00:00.375 : en:Chapter 01
00:10:00.599 : en:Chapter 02
00:20:01.200 : en:Chapter 03
00:30:01.800 : en:Chapter 04
00:40:02.400 : en:Chapter 05
00:50:03.000 : en:Chapter 06
01:00:03.600 : en:Chapter 07
01:10:04.200 : en:Chapter 08
01:20:04.800 : en:Chapter 09
01:30:05.400 : en:Chapter 10
01:40:06.000 : en:Chapter 11
Скріншоти



Джерело: &
Особиста оцінка: 0 - не дивився


Срібний реліз (на рейтинг впливає 50% завантаженого)
 Трекер:    Зареєстрований   

Завантажити / скачати фільм українською



відео для новачків



 Зареєстрований:   2018-09-09 20:30
 Розмір:   6.6 GB 
 Оцінка фільму:   7/10 (Голосів: 3)
   
anreano 
Новенький


З нами з: 29.04.16
Востаннє: 15.10.18
Повідомлень: 1

2018-09-09 18:55  
А цей фільм бува не 1984 року?
staf777 
Попереджень: 1
Попереджень: 1 


З нами з: 16.11.16
Востаннє: 16.10.18
Повідомлень: 1632

2018-09-09 19:30  
anreano
Так поплутав при оформленні з другою частиною

bot 
робот


З нами з: 30.09.07
Востаннє: 26.05.05
Повідомлень: 19956

2018-09-09 19:31  
Тему перенесено з Анонси релізів до форуму Фільми в HD


staf777

igor911 
Відео Гуртом
Відео Гуртом


З нами з: 18.01.08
Востаннє: 17.10.18
Повідомлень: 11240

2018-09-09 19:32  
staf777 написано:
Movie name : The Philadelphia Experiment (2012) 720p [2xUA][ENG][Hurtom]

виправ тег в

Ваш часовий пояс: GMT + 2 Години

Нова тема   Відповісти