Світ Юрського періоду 2 / Jurassic World: Fallen Kingdom (2018) 1080p Ukr/Eng | Sub Eng

Нові коментарі

Нова тема   Відповісти
Автор Повідомлення
staf777 
Попереджень: 1
Попереджень: 1 


З нами з: 16.11.16
Востаннє: 17.12.18
Повідомлень: 1931

2018-09-08 20:59  
Світ Юрського періоду 2 / Jurassic World: Fallen Kingdom (2018) 1080p Ukr/Eng | Sub Eng


Світ Юрського періоду 2 / Jurassic World: Fallen Kingdom (2018) 1080p Ukr/Eng | Sub Eng


Альтернативний постер:


«Життя знайде свій шлях»



Жанр: бойовик, фантастика, пригодницький
Країна: США, Іспанія



Кінокомпанія: Universal Pictures, Apaches Entertainment, Amblin Entertainment, Legendary Picture
Режисер: Хуан Антоніо Байона / J.A. Bayona
Актори: Кріс Пратт / Chris Pratt, Брайс Даллас Говард / Bryce Dallas Howard, Тед Левайн / Ted Levine, Джефф Голдблюм / Jeff Goldblum, Тобі Джонс / Toby Jones, Джеймс Кромвелл / James Cromwell, Б.Д. Вонг / BD Wong, Рейф Сполл / Rafe Spall, Даніелла Пінеда / Daniella Pineda, Джастіс Сміт / Justice Smith та інші

Сюжет:
Культова сага продовжується! Залишившись на уламках унікального парку розваг, динозаври відчули себе господарями, немов у доісторичні часи. Але раптове виверження древнього вулкана на зловісному острові Нублар ставить під загрозу існування не лише ящерів, а й усієї планети. Люди, які прибувають на острів, щоб взяти ситуацію під контроль, опиняються у смертельній пастці між потоками розжареної лави та розлюченими гігантськими динозаврами.


Тривалість: 02:08:17
Якість: 1080p

Відео:
кодек:
розмір кадру: 1920x804
бітрейт: 13 Mб/с

Аудіо #1:
мова: українська
переклад: професійний дубльований | студія LeDoyen
кодек: 2.0
бітрейт: 192 кб/с

Аудіо # 2:
мова: англійська
переклад: оригінал
кодек: 5.1
бітрейт: 640 кб/с

Субтитри (SDH):
мова: англійська
тип: програмні (м'які)
формат: *.srt
Info
Код:

General
Unique ID                   : 192881358420849043086973643831899474574 (0x911B993010E9FE837C6EF77DC3964A8E)
Complete name               : S:\Фільми в HD\Фантастика\Jurassic World Fallen Kingdom (2018) 1080p [UKR_ENG] [Hurtom] .
Format                      :
Format version              : Version 4 / Version 2
File size                   : 12.2 GiB
Duration                    : 2 h 8 min
Overall bit rate            : 13.6 Mb/s
Movie name                  : Jurassic World: Fallen Kingdom (2018) 1080p [UKR_ENG] [Hurtom]
Encoded date                : UTC 2018-09-08 19:01:03
Writing application         : v24.0.0 ('Beyond The Pale') 64-bit
Writing library             : libebml v1.3.6 + v1.4.9
Cover                       : Yes
Attachments                 : cover.jpg

Video
ID                          : 1
Format                      : AVC
Format/Info                 : Advanced Video Codec
Format profile              : [email protected]
Format settings             : CABAC / 4 Ref Frames
Format settings, CABAC      : Yes
Format settings, ReFrames   : 4 frames
Codec ID                    : V_MPEG4/ISO/AVC
Duration                    : 2 h 8 min
Bit rate                    : 13.0 Mb/s
Width                       : 1 920 pixels
Height                      : 804 pixels
Display aspect ratio        : 2.40:1
Frame rate mode             : Constant
Frame rate                  : 23.976 (24000/1001) FPS
Color space                 : YUV
Chroma subsampling          : 4:2:0
Bit depth                   : 8 bits
Scan type                   : Progressive
Bits/(Pixel*Frame)          : 0.351
Stream size                 : 11.4 GiB (94%)
Writing library             : core 155 r2867+74 66b5600 t_mod_Custom_2 [[email protected] X86_64]
Encoding settings           : cabac=1 / ref=4 / deblock=1:-3:-3 / analyse=0x3:0x133 / me=umh / subme=11 / psy=1 / fade_compensate=0.00 / psy_rd=0.95:0.10 / mixed_ref=1 / me_range=48 / chroma_me=1 / trellis=2 / 8x8dct=1 / cqm=0 / deadzone=21,11 / fast_pskip=0 / chroma_qp_offset=-4 / threads=12 / lookahead_threads=2 / sliced_threads=0 / nr=0 / decimate=1 / interlaced=0 / bluray_compat=0 / constrained_intra=0 / fgo=0 / bframes=9 / b_pyramid=2 / b_adapt=2 / b_bias=0 / direct=3 / weightb=1 / open_gop=0 / weightp=2 / keyint=250 / keyint_min=23 / scenecut=40 / intra_refresh=0 / rc_lookahead=30 / rc=2pass / mbtree=0 / bitrate=13000 / ratetol=1.0 / qcomp=0.70 / qpmin=0:0:0 / qpmax=69:69:69 / qpstep=4 / cplxblur=20.0 / qblur=0.5 / vbv_maxrate=35000 / vbv_bufsize=35000 / nal_hrd=none / filler=0 / ip_ratio=1.40 / pb_ratio=1.30 / aq=3:1.00 / aq-sensitivity=10.00 / aq-factor=1.00:1.00:1.00 / aq2=0 / aq3=2:[0.50:0.50]:[0.50:0.50]:[0.50:0.50]:[0.50:0.50] / aq3-sensitivity=10.00 / aq3-factor=[1.00:1.00]:[1.00:1.00]:[1.00:1.00] / aq3-boundary=192:64:24
Language                    : English
Default                     : Yes
Forced                      : No

Audio #1
ID                          : 2
Format                      : AC-3
Format/Info                 : Audio Coding 3
Codec ID                    : A_AC3
Duration                    : 2 h 8 min
Bit rate mode               : Constant
Bit rate                    : 192 kb/s
Channel(s)                  : 2 channels
Channel positions           : Front: L R
Sampling rate               : 48.0 kHz
Frame rate                  : 31.250 FPS (1536 SPF)
Bit depth                   : 16 bits
Compression mode            : Lossy
Stream size                 : 176 MiB (1%)
Title                       : | студія LeDoyen
Language                    : Ukrainian
Service kind                : Complete Main
Default                     : Yes
Forced                      : Yes

Audio #2
ID                          : 3
Format                      : AC-3
Format/Info                 : Audio Coding 3
Codec ID                    : A_AC3
Duration                    : 2 h 8 min
Bit rate mode               : Constant
Bit rate                    : 640 kb/s
Channel(s)                  : 6 channels
Channel positions           : Front: L C R, Side: L R, LFE
Sampling rate               : 48.0 kHz
Frame rate                  : 31.250 FPS (1536 SPF)
Bit depth                   : 16 bits
Compression mode            : Lossy
Stream size                 : 587 MiB (5%)
Title                       : Original
Language                    : English
Service kind                : Complete Main
Default                     : No
Forced                      : No

Text
ID                          : 4
Format                      : UTF-8
Codec ID                    : S_TEXT/UTF8
Codec ID/Info               : UTF-8 Plain Text
Duration                    : 2 h 7 min
Bit rate                    : 48 b/s
Count of elements           : 1771
Stream size                 : 45.4 KiB (0%)
Title                       : SDH
Language                    : English
Default                     : No
Forced                      : No

Menu
00:00:00.000                : en:00:00:00.000
00:07:13.224                : en:00:07:13.224
00:12:01.554                : en:00:12:01.554
00:17:17.745                : en:00:17:17.745
00:21:17.193                : en:00:21:17.193
00:28:49.811                : en:00:28:49.811
00:35:04.686                : en:00:35:04.686
00:40:51.574                : en:00:40:51.574
00:46:32.498                : en:00:46:32.498
00:52:04.997                : en:00:52:04.997
01:00:59.197                : en:01:00:59.197
01:06:50.256                : en:01:06:50.256
01:11:07.638                : en:01:11:07.638
01:17:21.095                : en:01:17:21.095
01:26:55.210                : en:01:26:55.210
01:33:01.493                : en:01:33:01.493
01:42:55.878                : en:01:42:55.878
01:50:01.553                : en:01:50:01.553
01:54:56.223                : en:01:54:56.223
01:58:37.986                : en:01:58:37.986

Підтримати купівлю інших фільмів можна тут.

Подяка пану Sando7 за синхронізацію.
Дякую пану 11FrYkT за допомогу в створені реліза
Джерело:
Особиста оцінка: 0 - не дивився


 Трекер:    Зареєстрований   

Завантажити / скачати фільм українською



відео для новачків



 Зареєстрований:   2018-09-08 21:31
 Розмір:   12.15 GB 
 Оцінка фільму:   8.7/10 (Голосів: 40)
   
bot 
робот


З нами з: 30.09.07
Востаннє: 26.05.05
Повідомлень: 20357

2018-09-08 21:31  
Тему перенесено з Анонси релізів до форуму Фільми в HD


staf777

kkostiki 
Частий відвідувач


З нами з: 06.09.10
Востаннє: 16.12.18
Повідомлень: 46

2018-09-09 11:33  
Коли буде звук 5.1?
11FrYkT 
Модератор відео


З нами з: 20.02.11
Востаннє: 17.12.18
Повідомлень: 5273

2018-09-09 11:58  
kkostiki написано:
Коли буде звук 5.1?

ніколи

Barbaroid 
Новенький


З нами з: 02.11.08
Востаннє: 17.12.18
Повідомлень: 5

2018-09-09 12:22  
А це офіційний дубляж фільму? Маю на увазі, що іншого студійного дубляжу можна не чекати, так?
havryk 
VIP


З нами з: 29.06.10
Востаннє: 17.12.18
Повідомлень: 780

2018-09-09 12:56  
Barbaroid, так.
kkostiki 
Частий відвідувач


З нами з: 06.09.10
Востаннє: 16.12.18
Повідомлень: 46

2018-09-09 13:18  
11FrYkT написано:
ніколи

дякую

Barbaroid 
Новенький


З нами з: 02.11.08
Востаннє: 17.12.18
Повідомлень: 5

2018-09-09 13:22  
havryk
Що ж поробиш. Прикро. Але дякую і за такий реліз!

гобой 
Частий відвідувач


З нами з: 08.01.12
Востаннє: 16.12.18
Повідомлень: 29

2018-09-09 13:54  
фільм повна муть. Дуже шкодую, що пішов на прем*єру в Кіно
Dr.S 
Свій


З нами з: 30.05.17
Востаннє: 17.12.18
Повідомлень: 81

2018-09-10 09:56  
зроблю ремукс
maleficmax 
Свій


З нами з: 18.04.12
Востаннє: 12.12.18
Повідомлень: 76

2018-09-11 21:06  
Що за чортівня, народ? Чому дозволяються такі чорні незрозумілі релізи, і я маю їх качати не знаючи, чи там нормальній звук чи ні?
igor911 
Відео Гуртом
Відео Гуртом


З нами з: 18.01.08
Востаннє: 17.12.18
Повідомлень: 11622

2018-09-11 21:24  
maleficmax, звук скрізь однаковий - завантаж найменший реліз і будеш знати, який він.
maleficmax 
Свій


З нами з: 18.04.12
Востаннє: 12.12.18
Повідомлень: 76

2018-09-11 22:21  
igor911, це не правда, і ви знаєте це. Є як мінімум LineIn, iTunes. Якщо ви про цей фільм, то ча маю я витрачати час на те, щоб скачати іншу його версію (!!), щоб перевірити звук? До того ж не гарантовано, що я знайду версію без врахування рейтингу.
Чому автор роздачі просто не напише 5-6 додаткових літер?

igor911 
Відео Гуртом
Відео Гуртом


З нами з: 18.01.08
Востаннє: 17.12.18
Повідомлень: 11622

2018-09-11 22:26  
maleficmax, в нас всі релізи цього фільму після 08.09 з однаковим стерео-звуком.
Siegfried 
Поважний учасник


З нами з: 01.11.11
Востаннє: 14.12.18
Повідомлень: 202

2018-09-18 14:51  
Слабше за першу частину.
І таке враження, що К. Пратт через силу грав, якась апатія і приреченість лише в нього на обличчі були.

Хоча раз глянути можна, але задоволення від першої частини більше було.

4.5/10

woled 
Новенький


З нами з: 31.05.17
Востаннє: 17.12.18
Повідомлень: 21

2018-12-17 12:55  
6/10 Дивитись можна
Ваш часовий пояс: GMT + 2 Години

Нова тема   Відповісти