Ноша (Карґо) / Cargo (2017) 1080p Ukr/Eng | Sub Ukr/Eng

Нові коментарі

Нова тема   Відповісти
Автор Повідомлення
-Star-Lord- 
Поважний учасник


З нами з: 09.08.18
Востаннє: 19.10.18
Повідомлень: 210

2018-09-08 19:44  
Ноша (Карґо) / Cargo (2017) 1080p Ukr/Eng | Sub Ukr/Eng

Ноша (Карґо) / Cargo (2017) 1080p Ukr/Eng | Sub Ukr/Eng


Жанр: драма, трилер
Країна: Австралія



Кінокомпанія: Umbrella Entertainment, Addictive Pictures, Causeway Films, Head Gear Films
Режисер: Бен Говлінґ, Йоланда Рамке
Актори: Мартін Фрімен, Ентоні Гайс, Сусі Портер та інші.

Сюжет:
Фільм про Енді який через нашестя зомбі втрачає свою дружину та залишається на самоті з маленькою донечкою. Його теж вкусили, тому він має лише 48 годин на те щоб знайти безпечне місце для немовляти і єдиним таким місцем є поселення аборигенів, але потрапити до них не так просто.


Тривалість: 01:44:03
Якість:
Відео:
кодек: H.265 (HEVC)
розмір кадру: 1920 х 858
бітрейт: 5 002 кб/с
бітова глибина: 10 біт
Увага! Перед завантаженням переконайтесь, що ваш пристрій відтворення (та/або ПЗ) підтримує H.265 (HEVC)

Аудіо # 1:
мова: українська
переклад: багатоголосий закадровий
кодек: 5.1
бітрейт: 384 кб/с

Аудіо # 2:
мова: англійська
переклад: оригінал
кодек: 5.1
бітрейт: 384 кб/с

Субтитри # 1:
мова: українська
тип: програмні (м'які)
формат: *.

Субтитри # 2:
мова: англійська
тип: програмні (м'які)
формат: *.VobSub


Info
Код:
General
Unique ID                                : 218478981830758710759802049726133074161 (0xA45D85760F78CB4B7F8AC56CD99878F1)
Complete name                            : F:\Video\Cargo (2017) 1080p H.265 [UKR_ENG].
Format                                   :
Format version                           : Version 4 / Version 2
File size                                : 4.18 GiB
Duration                                 : 1 h 44 min
Overall bit rate                         : 5 753 kb/s
Movie name                               : Cargo (2017)
Encoded date                             : UTC 2018-09-08 00:27:50
Writing application                      : v20.0.0 ('I Am The Sun') 32-bit
Writing library                          : libebml v1.3.5 + v1.4.8
Cover                                    : Yes
Attachments                              : Cover.jpg

Video
ID                                       : 1
Format                                   : HEVC
Format/Info                              : High Efficiency Video Coding
Format profile                           : Main [email protected]@Main
Codec ID                                 : V_MPEGH/ISO/HEVC
Duration                                 : 1 h 43 min
Bit rate                                 : 5 002 kb/s
Width                                    : 1 920 pixels
Height                                   : 858 pixels
Display aspect ratio                     : 2.25:1
Frame rate mode                          : Constant
Frame rate                               : 23.976 (24000/1001) FPS
Color space                              : YUV
Chroma subsampling                       : 4:2:0
Bit depth                                : 10 bits
Bits/(Pixel*Frame)                       : 0.127
Stream size                              : 3.62 GiB (87%)
Writing library                          : x265 2.8+40-0106f9f2f867:[Windows][GCC 7.3.0][64 bit] 10bit
Encoding settings                        : cpuid=1111039 / frame-threads=3 / numa-pools=8 / wpp / no-pmode / no-pme / no-psnr / no-ssim / log-level=2 / input-csp=1 / input-res=1920x858 / interlace=0 / total-frames=149049 / level-idc=0 / high-tier=1 / uhd-bd=0 / ref=4 / no-allow-non-conformance / no-repeat-headers / annexb / no-aud / no-hrd / info / hash=0 / no-temporal-layers / open-gop / min-keyint=23 / keyint=250 / gop-lookahead=0 / bframes=4 / b-adapt=2 / b-pyramid / bframe-bias=0 / rc-lookahead=25 / lookahead-slices=4 / scenecut=40 / radl=0 / no-intra-refresh / ctu=64 / min-cu-size=8 / rect / no-amp / max-tu-size=32 / tu-inter-depth=1 / tu-intra-depth=1 / limit-tu=0 / rdoq-level=2 / dynamic-rd=0.00 / no-ssim-rd / signhide / no-tskip / nr-intra=0 / nr-inter=0 / no-constrained-intra / strong-intra-smoothing / max-merge=3 / limit-refs=3 / limit-modes / me=3 / subme=3 / merange=57 / temporal-mvp / weightp / no-weightb / no-analyze-src-pics / deblock=0:0 / sao / no-sao-non-deblock / rd=4 / no-early-skip / rskip / no-fast-intra / no-tskip-fast / no-cu-lossless / no-b-intra / no-splitrd-skip / rdpenalty=0 / psy-rd=2.00 / psy-rdoq=1.00 / no-rd-refine / no-lossless / cbqpoffs=0 / crqpoffs=0 / rc=abr / bitrate=5000 / qcomp=0.60 / qpstep=4 / stats-write=0 / stats-read=2 / cplxblur=20.0 / qblur=0.5 / ipratio=1.40 / pbratio=1.30 / aq-mode=3 / aq-strength=1.00 / cutree / zone-count=0 / no-strict-cbr / qg-size=32 / no-rc-grain / qpmax=69 / qpmin=0 / no-const-vbv / sar=0 / overscan=0 / videoformat=5 / range=0 / colorprim=2 / transfer=2 / colormatrix=2 / chromaloc=0 / display-window=0 / max-cll=0,0 / min-luma=0 / max-luma=1023 / log2-max-poc-lsb=8 / vui-timing-info / vui-hrd-info / slices=1 / no-opt-qp-pps / no-opt-ref-list-length-pps / multi-pass-opt-rps / scenecut-bias=0.05 / no-opt-cu-delta-qp / aq-motion / no-hdr / no-hdr-opt / no-dhdr10-opt / no-idr-recovery-sei / analysis-reuse-level=5 / scale-factor=0 / refine-intra=0 / refine-inter=0 / refine-mv=0 / no-limit-sao / ctu-info=0 / no-lowpass-dct / refine-mv-type=0 / copy-pic=1 / max-ausize-factor=1.0 / no-dynamic-refine / no-single-sei
Default                                  : Yes
Forced                                   : No

Audio #1
ID                                       : 2
Format                                   : AC-3
Format/Info                              : Audio Coding 3
Codec ID                                 : A_AC3
Duration                                 : 1 h 44 min
Bit rate mode                            : Constant
Bit rate                                 : 384 kb/s
Channel(s)                               : 6 channels
Channel positions                        : Front: L C R, Side: L R, LFE
Sampling rate                            : 48.0 kHz
Frame rate                               : 31.250 FPS (1536 SPF)
Bit depth                                : 16 bits
Compression mode                         : Lossy
Delay relative to video                  : 16 ms
Stream size                              : 286 MiB (7%)
Title                                    : Українська
Language                                 : Ukrainian
Service kind                             : Complete Main
Default                                  : Yes
Forced                                   : No

Audio #2
ID                                       : 3
Format                                   : AC-3
Format/Info                              : Audio Coding 3
Codec ID                                 : A_AC3
Duration                                 : 1 h 44 min
Bit rate mode                            : Constant
Bit rate                                 : 384 kb/s
Channel(s)                               : 6 channels
Channel positions                        : Front: L C R, Side: L R, LFE
Sampling rate                            : 48.0 kHz
Frame rate                               : 31.250 FPS (1536 SPF)
Bit depth                                : 16 bits
Compression mode                         : Lossy
Delay relative to video                  : 16 ms
Stream size                              : 286 MiB (7%)
Title                                    : Англійська
Language                                 : English
Service kind                             : Complete Main
Default                                  : No
Forced                                   : No

Text #1
ID                                       : 4
Format                                   : UTF-8
Codec ID                                 : S_TEXT/UTF8
Codec ID/Info                            : UTF-8 Plain Text
Duration                                 : 1 h 36 min
Bit rate                                 : 40 b/s
Count of elements                        : 672
Stream size                              : 29.0 KiB (0%)
Title                                    : Українські
Language                                 : Ukrainian
Default                                  : Yes
Forced                                   : No

Text #2
ID                                       : 5
Format                                   : VobSub
Muxing mode                              : zlib
Codec ID                                 : S_VOBSUB
Codec ID/Info                            : Picture based subtitle format used on DVDs
Duration                                 : 1 h 42 min
Bit rate                                 : 3 994 b/s
Count of elements                        : 934
Stream size                              : 2.92 MiB (0%)
Title                                    : Англійські
Language                                 : English
Default                                  : No
Forced                                   : No

Menu
00:00:00.000                             : en:Chapter 01
00:00:42.333                             : en:Chapter 02
00:06:33.101                             : en:Chapter 03
00:16:29.571                             : en:Chapter 04
00:26:01.601                             : en:Chapter 05
00:31:49.616                             : en:Chapter 06
00:43:30.232                             : en:Chapter 07
00:54:46.825                             : en:Chapter 08
01:05:59.580                             : en:Chapter 09
01:12:16.123                             : en:Chapter 10
01:20:56.142                             : en:Chapter 11
01:26:07.078                             : en:Chapter 12
01:38:25.524                             : en:Chapter 13
Скріншоти




Джерело:
Особиста оцінка: 0 - не дивився


Авторський реліз (завантажувати можна без реєстрації)
 Трекер:    Зареєстрований   

Завантажити / скачати фільм українською



відео для новачків



 Зареєстрований:   2018-09-08 19:44
 Розмір:   4.18 GB 
 Оцінка фільму:   9.2/10 (Голосів: 6)
   
Інші релізи
   Ноша (Карґо) / Cargo (2017) AVC Ukr/Eng | Sub Ukr RobotaGolosom  30 / 3   1.11 GB   2018-06-22 20:28 
   Ноша (Карґо) / Cargo (2017) 1080p Ukr/Eng | Sub Ukr RobotaGolosom  21 / 3   4.24 GB   2018-06-22 20:13 
   Ноша (Карґо) / Cargo (2017) 720p Ukr/Eng | Sub Ukr RobotaGolosom  14 / 0   2.43 GB   2018-06-22 13:58 
Ваш часовий пояс: GMT + 2 Години

Нова тема   Відповісти