Війна світів / War of the Worlds (2005) mini 1080p H.265 2xUkr/Eng | Sub Eng

Нові коментарі

Нова тема   Відповісти
Автор Повідомлення
-Star-Lord- 
VIP


З нами з: 09.08.18
Востаннє: 13.12.18
Повідомлень: 342

2018-09-08 18:33  
Війна світів / War of the Worlds (2005) mini 1080p H.265 2xUkr/Eng | Sub Eng

Війна світів / War of the Worlds (2005) mini 1080p H.265 2xUkr/Eng | Sub Eng


Жанр: фантастика, бойовик, драма
Країна: США



Кінокомпанія: Paramount Pictures, DreamWorks Pictures
Режисер: Стівен Спілберг
Актори: Том Круз, Дакота Феннінг, Джастін Чатвін, Міранда Отто, Тім Роббінс

Сюжет:
Екранізація однойменного романа Герберта Уеллса про вторгнення на Землю марсіан, чия зброя перевершує найсучасніші розробки людства. Події цього фантастичного блокбастера відбувається у наш час. Рей Ферр'є – зовсім не схожий на чергового рятівника світу. Скоріше навпаки: він повний невдаха. Дружина залишає Рея, та й діти зовсім не поважають батька. Втім, коли перед світом постає велика небезпека ззовні, простий трудівник може стати героєм. У сутичці між землянами та прибульцями, Рей намагається врятувати свою родину від смертельного жаху, який охопив Землю.


Тривалість: 01:56:32
Якість:
Відео:
кодек: H.265 (HEVC)
розмір кадру: 1920 х 1040
бітрейт: 4 999 кб/с
бітова глибина: 10 біт
Увага! Перед завантаженням переконайтесь, що ваш пристрій відтворення (та/або ПЗ) підтримує H.265 (HEVC)

Аудіо # 1:
мова: українська
переклад: багатоголосий закадровий
кодек: 2.0
бітрейт: 192 кб/с

Аудіо # 2:
мова: українська
переклад: багатоголосий закадровий
кодек: 2.0
бітрейт: 192 кб/с

Аудіо # 3:
мова: англійська
переклад: оригінал
кодек: 2.0
бітрейт: 192 кб/с

Субтитри:
мова: англійська
тип: програмні (м'які)
формат: *.VobSub


Info
Код:
General
Unique ID                                : 43442433834270131284339693790826897718 (0x20AEB55ADF41F12330E4AA787374A136)
Complete name                            : F:\Video\War of the Worlds (2005) 1080p H.265 [2xUKR_ENG].
Format                                   :
Format version                           : Version 4 / Version 2
File size                                : 4.54 GiB
Duration                                 : 1 h 56 min
Overall bit rate                         : 5 582 kb/s
Movie name                               : War of the Worlds (2005)
Encoded date                             : UTC 2018-09-04 08:00:34
Writing application                      : v20.0.0 ('I Am The Sun') 32-bit
Writing library                          : libebml v1.3.5 + v1.4.8
Cover                                    : Yes
Attachments                              : cover.jpg

Video
ID                                       : 1
Format                                   : HEVC
Format/Info                              : High Efficiency Video Coding
Format profile                           : Main [email protected]@Main
Codec ID                                 : V_MPEGH/ISO/HEVC
Duration                                 : 1 h 56 min
Bit rate                                 : 4 999 kb/s
Width                                    : 1 920 pixels
Height                                   : 1 040 pixels
Display aspect ratio                     : 1.85:1
Frame rate mode                          : Constant
Frame rate                               : 23.976 (24000/1001) FPS
Color space                              : YUV
Chroma subsampling                       : 4:2:0
Bit depth                                : 10 bits
Bits/(Pixel*Frame)                       : 0.104
Stream size                              : 4.07 GiB (90%)
Writing library                          : x265 2.8+40-0106f9f2f867:[Windows][GCC 7.3.0][64 bit] 10bit
Encoding settings                        : cpuid=1111039 / frame-threads=3 / numa-pools=8 / wpp / no-pmode / no-pme / no-psnr / no-ssim / log-level=2 / input-csp=1 / input-res=1920x1040 / interlace=0 / total-frames=167665 / level-idc=0 / high-tier=1 / uhd-bd=0 / ref=4 / no-allow-non-conformance / no-repeat-headers / annexb / no-aud / no-hrd / info / hash=0 / no-temporal-layers / open-gop / min-keyint=23 / keyint=250 / gop-lookahead=0 / bframes=4 / b-adapt=2 / b-pyramid / bframe-bias=0 / rc-lookahead=25 / lookahead-slices=4 / scenecut=40 / radl=0 / no-intra-refresh / ctu=64 / min-cu-size=8 / rect / no-amp / max-tu-size=32 / tu-inter-depth=1 / tu-intra-depth=1 / limit-tu=0 / rdoq-level=2 / dynamic-rd=0.00 / no-ssim-rd / signhide / no-tskip / nr-intra=0 / nr-inter=0 / no-constrained-intra / strong-intra-smoothing / max-merge=3 / limit-refs=3 / limit-modes / me=3 / subme=3 / merange=57 / temporal-mvp / weightp / no-weightb / no-analyze-src-pics / deblock=0:0 / sao / no-sao-non-deblock / rd=4 / no-early-skip / rskip / no-fast-intra / no-tskip-fast / no-cu-lossless / no-b-intra / no-splitrd-skip / rdpenalty=0 / psy-rd=2.00 / psy-rdoq=1.00 / no-rd-refine / no-lossless / cbqpoffs=0 / crqpoffs=0 / rc=abr / bitrate=5000 / qcomp=0.60 / qpstep=4 / stats-write=0 / stats-read=2 / cplxblur=20.0 / qblur=0.5 / ipratio=1.40 / pbratio=1.30 / aq-mode=2 / aq-strength=1.00 / cutree / zone-count=0 / no-strict-cbr / qg-size=32 / no-rc-grain / qpmax=69 / qpmin=0 / no-const-vbv / sar=0 / overscan=0 / videoformat=5 / range=0 / colorprim=2 / transfer=2 / colormatrix=2 / chromaloc=0 / display-window=0 / max-cll=0,0 / min-luma=0 / max-luma=1023 / log2-max-poc-lsb=8 / vui-timing-info / vui-hrd-info / slices=1 / no-opt-qp-pps / no-opt-ref-list-length-pps / multi-pass-opt-rps / scenecut-bias=0.05 / no-opt-cu-delta-qp / aq-motion / no-hdr / no-hdr-opt / no-dhdr10-opt / no-idr-recovery-sei / analysis-reuse-level=5 / scale-factor=0 / refine-intra=0 / refine-inter=0 / refine-mv=0 / no-limit-sao / ctu-info=0 / no-lowpass-dct / refine-mv-type=0 / copy-pic=1 / max-ausize-factor=1.0 / no-dynamic-refine / no-single-sei
Default                                  : Yes
Forced                                   : No

Audio #1
ID                                       : 2
Format                                   : AC-3
Format/Info                              : Audio Coding 3
Codec ID                                 : A_AC3
Duration                                 : 1 h 56 min
Bit rate mode                            : Constant
Bit rate                                 : 192 kb/s
Channel(s)                               : 2 channels
Channel positions                        : Front: L R
Sampling rate                            : 48.0 kHz
Frame rate                               : 31.250 FPS (1536 SPF)
Bit depth                                : 16 bits
Compression mode                         : Lossy
Stream size                              : 160 MiB (3%)
Title                                    : Inter
Language                                 : Ukrainian
Service kind                             : Complete Main
Default                                  : Yes
Forced                                   : No

Audio #2
ID                                       : 3
Format                                   : AC-3
Format/Info                              : Audio Coding 3
Codec ID                                 : A_AC3
Duration                                 : 1 h 56 min
Bit rate mode                            : Constant
Bit rate                                 : 192 kb/s
Channel(s)                               : 2 channels
Channel positions                        : Front: L R
Sampling rate                            : 48.0 kHz
Frame rate                               : 31.250 FPS (1536 SPF)
Bit depth                                : 16 bits
Compression mode                         : Lossy
Stream size                              : 160 MiB (3%)
Title                                    : ICTV
Language                                 : Ukrainian
Service kind                             : Complete Main
Default                                  : No
Forced                                   : No

Audio #3
ID                                       : 4
Format                                   : AC-3
Format/Info                              : Audio Coding 3
Codec ID                                 : A_AC3
Duration                                 : 1 h 56 min
Bit rate mode                            : Constant
Bit rate                                 : 192 kb/s
Channel(s)                               : 2 channels
Channel positions                        : Front: L R
Sampling rate                            : 48.0 kHz
Frame rate                               : 31.250 FPS (1536 SPF)
Bit depth                                : 16 bits
Compression mode                         : Lossy
Stream size                              : 160 MiB (3%)
Title                                    : Original
Language                                 : English
Service kind                             : Complete Main
Default                                  : No
Forced                                   : No

Text
ID                                       : 5
Format                                   : VobSub
Muxing mode                              : zlib
Codec ID                                 : S_VOBSUB
Codec ID/Info                            : Picture based subtitle format used on DVDs
Duration                                 : 1 h 48 min
Bit rate                                 : 8 862 b/s
Count of elements                        : 1224
Stream size                              : 6.86 MiB (0%)
Language                                 : English
Default                                  : No
Forced                                   : No

Menu
00:00:00.000                             : en:Chapter 01
00:04:16.005                             : en:Chapter 02
00:08:18.247                             : en:Chapter 03
00:13:17.379                             : en:Chapter 04
00:19:19.867                             : en:Chapter 05
00:25:29.319                             : en:Chapter 06
00:29:45.241                             : en:Chapter 07
00:34:32.570                             : en:Chapter 08
00:38:47.033                             : en:Chapter 09
00:43:53.255                             : en:Chapter 10
00:49:03.732                             : en:Chapter 11
00:55:17.105                             : en:Chapter 12
00:59:21.015                             : en:Chapter 13
01:04:44.171                             : en:Chapter 14
01:10:37.233                             : en:Chapter 15
01:15:53.298                             : en:Chapter 16
01:20:28.990                             : en:Chapter 17
01:24:47.999                             : en:Chapter 18
01:29:03.963                             : en:Chapter 19
01:33:59.884                             : en:Chapter 20
01:36:59.605                             : en:Chapter 21
01:41:07.561                             : en:Chapter 22
01:45:27.404                             : en:Chapter 23
01:49:42.367                             : en:Chapter 24
Скріншоти




Джерело:
Особиста оцінка: 10 - без зайвих вагань рекомендую всім!


 Трекер:    Зареєстрований   

Завантажити / скачати фільм українською



відео для новачків



 Зареєстрований:   2018-09-08 18:33
 Розмір:   4.54 GB 
 Оцінка фільму:   10/10 (Голосів: 4)
   
Інші релізи
   Війна світів / War of the Worlds (2005) 2xUkr/Eng Arsenfpu  4 / 0   1.98 GB   2016-05-14 19:41 
   Війна світів / War of the Worlds (2005) 720p 2хUkr/Eng ilu  3 / 0   4.59 GB   2013-09-16 01:24 
   Війна світів / War of the Worlds (2005) 1080p 2хUkr/Eng ilu  4 / 0   10.04 GB   2013-09-16 01:21 
   Війна світів / H.G. Wells' War of the Worlds (2005) Кіт Баюн  3 / 0   1.28 GB   2009-02-21 23:07 
Ваш часовий пояс: GMT + 2 Години

Нова тема   Відповісти