Елізіум / Elysium (2013) 1080p H.265 Ukr/Eng | Sub Eng

Нові коментарі

Нова тема   Відповісти
Автор Повідомлення
-Star-Lord- 
Поважний учасник


З нами з: 09.08.18
Востаннє: 19.10.18
Повідомлень: 209

2018-09-08 19:27  
Елізіум / Elysium (2013) 1080p H.265 Ukr/Eng | Sub Eng

Елізіум / Elysium (2013) 1080p H.265 Ukr/Eng | Sub Eng


Жанр: екшн, драма, фантастика
Країна: США



Кінокомпанія: TriStar Pictures, Media Rights Capital, QED International, Simon Kinberg Productions, Sony Pictures Entertainment; мейджор – Buena Vista Sony Pictures Releasing (BVSPR)
Режисер: Ніл Бломкамп
Актори: Метт Деймон, Джоді Фостер, Шарлто Коплі, Еліс Брага, Дієго Луна

Сюжет:
У 2154 році існує два класи людей: неймовірно багаті та «решта». Перші живуть на чистій, створеній людьми, космічній станції під назвою Елізіум, другі — на перенаселеній напівзруйнованій Землі. Безжалісний урядовець Міністр Роудс не зупиниться ні перед чим, щоб привести у виконання жорсткі анти-імміграційні закони і зберегти розкішне життя громадян станції. Це, однак, не зупиняє мешканців Землі від спроб за будь-яку ціну проникнути на Елізіум. Коли невдаху Макса заганяють в кут, він погоджується піти на ризиковану місію, яка в разі успіху не лише врятує йому життя, але і може привести до рівноправ'я такі настільки різні світи.


Тривалість: 01:49:04
Якість:
Відео:
кодек: H.265 (HEVC)
розмір кадру: 1920 х 804
бітрейт: 4 090 кб/с
бітова глибина: 10 біт
Увага! Перед завантаженням переконайтесь, що ваш пристрій відтворення (та/або ПЗ) підтримує H.265 (HEVC)

Аудіо # 1:
мова: українська
переклад: професійний дубльований
кодек: 5.1
бітрейт: 640 кб/с

Аудіо # 2:
мова: англійська
переклад: оригінал
кодек: 5.1
бітрейт: 448 кб/с

Субтитри # 1:
мова: українська (Forced)
тип: програмні (м'які)
формат: *.srt

Субтитри # 2-3:
мова: англійська (Forced, Full)
тип: програмні (м'які)
формат: *.srt


Info
Код:
General
Unique ID                                : 314065448170106923712963523575235680044 (0xEC46CE1BDFB235B6D9105F9A25A3172C)
Complete name                            : F:\Video\Elysium (2013) 1080p H.265 [UKR_ENG].
Format                                   :
Format version                           : Version 4 / Version 2
File size                                : 3.97 GiB
Duration                                 : 1 h 49 min
Overall bit rate                         : 5 180 kb/s
Movie name                               : Elysium (2013)
Encoded date                             : UTC 2018-09-06 09:19:26
Writing application                      : v20.0.0 ('I Am The Sun') 32-bit
Writing library                          : libebml v1.3.5 + v1.4.8
Cover                                    : Yes
Attachments                              : Cover.jpg

Video
ID                                       : 1
Format                                   : HEVC
Format/Info                              : High Efficiency Video Coding
Format profile                           : Main [email protected]@Main
Codec ID                                 : V_MPEGH/ISO/HEVC
Duration                                 : 1 h 49 min
Bit rate                                 : 4 090 kb/s
Width                                    : 1 920 pixels
Height                                   : 804 pixels
Display aspect ratio                     : 2.40:1
Frame rate mode                          : Constant
Frame rate                               : 23.976 (24000/1001) FPS
Color space                              : YUV
Chroma subsampling                       : 4:2:0
Bit depth                                : 10 bits
Bits/(Pixel*Frame)                       : 0.111
Stream size                              : 3.13 GiB (79%)
Writing library                          : x265 1.9:[Windows][GCC 4.9.2][64 bit] 10bit
Encoding settings                        : wpp / ctu=64 / min-cu-size=8 / max-tu-size=32 / tu-intra-depth=3 / tu-inter-depth=3 / me=3 / subme=4 / merange=57 / rect / amp / max-merge=4 / temporal-mvp / no-early-skip / rdpenalty=0 / no-tskip / no-tskip-fast / strong-intra-smoothing / no-lossless / no-cu-lossless / no-constrained-intra / no-fast-intra / open-gop / no-temporal-layers / interlace=0 / keyint=240 / min-keyint=24 / scenecut=40 / rc-lookahead=40 / lookahead-slices=0 / bframes=8 / bframe-bias=0 / b-adapt=2 / ref=5 / limit-refs=1 / limit-modes / weightp / weightb / aq-mode=1 / qg-size=32 / aq-strength=1.00 / cbqpoffs=0 / crqpoffs=0 / rd=6 / psy-rd=2.00 / rdoq-level=2 / psy-rdoq=1.00 / signhide / deblock / sao / no-sao-non-deblock / b-pyramid / cutree / no-intra-refresh / rc=crf / crf=17.8 / qcomp=0.60 / qpmin=0 / qpmax=51 / qpstep=4 / ipratio=1.40 / pbratio=1.30
Default                                  : Yes
Forced                                   : No
Color range                              : Limited
Color primaries                          : BT.709
Transfer characteristics                 : BT.709
Matrix coefficients                      : BT.709

Audio #1
ID                                       : 2
Format                                   : AC-3
Format/Info                              : Audio Coding 3
Codec ID                                 : A_AC3
Duration                                 : 1 h 49 min
Bit rate mode                            : Constant
Bit rate                                 : 640 kb/s
Channel(s)                               : 6 channels
Channel positions                        : Front: L C R, Side: L R, LFE
Sampling rate                            : 48.0 kHz
Frame rate                               : 31.250 FPS (1536 SPF)
Bit depth                                : 16 bits
Compression mode                         : Lossy
Delay relative to video                  : -83 ms
Stream size                              : 502 MiB (12%)
Title                                    : BluRay
Language                                 : Ukrainian
Service kind                             : Complete Main
Default                                  : No
Forced                                   : No

Audio #2
ID                                       : 3
Format                                   : E-AC-3
Format/Info                              : Enhanced Audio Coding 3
Codec ID                                 : A_EAC3
Duration                                 : 1 h 49 min
Bit rate mode                            : Constant
Bit rate                                 : 448 kb/s
Channel(s)                               : 6 channels
Channel positions                        : Front: L C R, Side: L R, LFE
Sampling rate                            : 48.0 kHz
Frame rate                               : 187.500 FPS (256 SPF)
Compression mode                         : Lossy
Delay relative to video                  : -5 ms
Stream size                              : 351 MiB (9%)
Title                                    : English 5.1 EAC3 448kbps 48khz 16bits
Language                                 : English
Service kind                             : Complete Main
Default                                  : No
Forced                                   : No

Text #1
ID                                       : 4
Format                                   : UTF-8
Codec ID                                 : S_TEXT/UTF8
Codec ID/Info                            : UTF-8 Plain Text
Duration                                 : 1 h 39 min
Bit rate                                 : 3 b/s
Count of elements                        : 56
Stream size                              : 2.71 KiB (0%)
Title                                    : Forced
Language                                 : Ukrainian
Default                                  : Yes
Forced                                   : Yes

Text #2
ID                                       : 5
Format                                   : UTF-8
Codec ID                                 : S_TEXT/UTF8
Codec ID/Info                            : UTF-8 Plain Text
Duration                                 : 1 h 39 min
Bit rate                                 : 1 b/s
Count of elements                        : 53
Stream size                              : 1.42 KiB (0%)
Title                                    : Forced
Language                                 : English
Default                                  : No
Forced                                   : No

Text #3
ID                                       : 6
Format                                   : UTF-8
Codec ID                                 : S_TEXT/UTF8
Codec ID/Info                            : UTF-8 Plain Text
Duration                                 : 1 h 39 min
Bit rate                                 : 49 b/s
Count of elements                        : 1063
Stream size                              : 36.1 KiB (0%)
Language                                 : English
Default                                  : No
Forced                                   : No

Menu
00:00:00.000                             : en:00:00:00.000
00:07:02.589                             : en:00:07:02.589
00:11:59.344                             : en:00:11:59.344
00:19:27.625                             : en:00:19:27.625
00:25:34.825                             : en:00:25:34.825
00:30:02.342                             : en:00:30:02.342
00:39:22.068                             : en:00:39:22.068
00:57:43.960                             : en:00:57:43.960
01:00:59.197                             : en:01:00:59.197
01:04:09.637                             : en:01:04:09.637
01:07:22.664                             : en:01:07:22.664
01:10:34.147                             : en:01:10:34.147
01:16:59.865                             : en:01:16:59.865
01:22:50.132                             : en:01:22:50.132
01:30:19.914                             : en:01:30:19.914
01:35:44.530                             : en:01:35:44.530
Скріншоти




Джерело:
Особиста оцінка: 10 - без зайвих вагань рекомендую всім!


 Трекер:    Зареєстрований   

Завантажити / скачати фільм українською



відео для новачків



 Зареєстрований:   2018-09-08 19:27
 Розмір:   3.97 GB 
 Оцінка фільму:   9.8/10 (Голосів: 5)
   
Інші релізи
   Елізіум / Elysium (2013) 720p-mini Drool  2 / 0   2.49 GB   2013-11-29 11:19 
   Елізіум / Elysium (2013) AVC patriot2305  3 / 1   2.26 GB   2013-11-27 20:02 
   Елізіум / Elysium (2013) Ukr/Eng AngryBirdsUA  3 / 0   2.18 GB   2013-11-27 15:22 
   Елізіум / Elysium (2013) 1080p Ukr/Eng | sub Eng igor911  3 / 0   11.06 GB   2013-11-26 19:19 
   Елізіум / Elysium (2013) Jatx_11  10 / 0   1.46 GB   2013-11-26 18:34 
   Елізіум / Elysium (2013) 720p Ukr/Eng | sub Eng akon111  9 / 0   5.5 GB   2013-11-26 18:18 
   Елізіум / Elysium (2013) Blu-ray CEE Multi | Sub Multi smak2001  0 / 0   41.97 GB   2013-11-26 16:54 
Ваш часовий пояс: GMT + 2 Години

Нова тема   Відповісти