Тринадцятий поверх / The Thirteenth Floor (1999) 1080p H.265 Ukr/Eng | Sub Eng

Нові коментарі

Нова тема   Відповісти
Автор Повідомлення
-Star-Lord- 
Поважний учасник


З нами з: 09.08.18
Востаннє: 17.10.18
Повідомлень: 197

2018-09-08 19:22  
Тринадцятий поверх / The Thirteenth Floor (1999) 1080p H.265 Ukr/Eng | Sub Eng

Тринадцятий поверх / The Thirteenth Floor (1999) 1080p H.265 Ukr/Eng | Sub Eng


Жанр: фантастика, трилер
Країна: США



Кінокомпанія: Centropolis Film Productions
Режисер: Джозеф Руснак / Josef Rusnak
Актори: Крейг Б'єрко, Армiн Мюллер-Шталь, Гретхен Молл, Вiнсент Д'Онофрiо та інші

Сюжет:
Фантастичний трилер на тему вiртуальної реальностi. Нова революцiйна модель цiєї технологii розроблена на тринадцятому поверсi комп'ютерної корпорацii. Занурюючись у цю точну iмiтацiю реального свiту, можна кiлька годин пожити життям iншоi людини. Решту часу, коли людина у вiртуальнiй реальностi не перебуває, там живе її двiйник - персонаж з подiбною зовнiшнiстю, але часто зовсiм вiдмiнним характером. Низка загадкових вбивств привертає увагу до корпорацiї. Розгадку слiд шукати у вiртуальнiй реальностi, а можливо, i в так званiй справжнiй...

Непогана стрiчка, але вона, на жаль, вийшла на екрани в один рiк з "Матрицею", де схожу iдею було подано набагато ефектнiше.


Тривалість: 01:40:29
Якість:
Відео:
кодек: H.265 (HEVC)
розмір кадру: 1920 х 800
бітрейт: 4 317 кб/с
бітова глибина: 10 біт
Увага! Перед завантаженням переконайтесь, що ваш пристрій відтворення (та/або ПЗ) підтримує H.265 (HEVC)

Аудіо # 1:
мова: українська
переклад: багатоголосий закадровий
кодек: 5.1
бітрейт: 448 кб/с

Аудіо # 2:
мова: англійська
переклад: оригінал
кодек: 5.1
бітрейт: 448 кб/с

Субтитри:
мова: англійська
тип: програмні (м'які)
формат: *.srt


Info
Код:
General
Unique ID                                : 108126131438638280303782174600381396700 (0x515855DECBB1FF07A96EEFAD346CF6DC)
Complete name                            : F:\Video\The Thirteenth Floor (1999) 1080p H.265 [UKR_ENG].
Format                                   :
Format version                           : Version 4 / Version 2
File size                                : 3.65 GiB
Duration                                 : 1 h 40 min
Overall bit rate                         : 5 200 kb/s
Movie name                               : The Thirteenth Floor (1999)
Encoded date                             : UTC 2018-09-06 09:34:49
Writing application                      : v20.0.0 ('I Am The Sun') 32-bit
Writing library                          : libebml v1.3.5 + v1.4.8
Cover                                    : Yes
Attachments                              : Cover.jpg

Video
ID                                       : 1
Format                                   : HEVC
Format/Info                              : High Efficiency Video Coding
Format profile                           : Main [email protected]@High
Codec ID                                 : V_MPEGH/ISO/HEVC
Duration                                 : 1 h 40 min
Bit rate                                 : 4 317 kb/s
Width                                    : 1 920 pixels
Height                                   : 800 pixels
Display aspect ratio                     : 2.40:1
Frame rate mode                          : Constant
Frame rate                               : 23.976 (24000/1001) FPS
Color space                              : YUV
Chroma subsampling                       : 4:2:0
Bit depth                                : 10 bits
Bits/(Pixel*Frame)                       : 0.117
Stream size                              : 3.03 GiB (83%)
Writing library                          : x265 2.2+22-20217c8af8ac:[Windows][GCC 6.2.0][64 bit] 10bit
Encoding settings                        : cpuid=1173503 / frame-threads=3 / numa-pools=8 / wpp / no-pmode / no-pme / no-psnr / ssim / log-level=2 / input-csp=1 / input-res=1920x800 / interlace=0 / total-frames=0 / level-idc=41 / high-tier=1 / uhd-bd=0 / ref=6 / no-allow-non-conformance / repeat-headers / annexb / aud / hrd / info / hash=0 / no-temporal-layers / open-gop / min-keyint=23 / keyint=250 / bframes=8 / b-adapt=2 / b-pyramid / bframe-bias=0 / rc-lookahead=60 / lookahead-slices=1 / scenecut=40 / no-intra-refresh / ctu=64 / min-cu-size=8 / no-rect / no-amp / max-tu-size=32 / tu-inter-depth=3 / tu-intra-depth=3 / limit-tu=0 / rdoq-level=1 / signhide / no-tskip / nr-intra=0 / nr-inter=0 / no-constrained-intra / no-strong-intra-smoothing / max-merge=2 / limit-refs=3 / no-limit-modes / me=3 / subme=3 / merange=64 / temporal-mvp / weightp / weightb / no-analyze-src-pics / deblock=-3:-3 / no-sao / no-sao-non-deblock / rd=4 / no-early-skip / no-rskip / no-fast-intra / no-tskip-fast / no-cu-lossless / no-b-intra / rdpenalty=0 / psy-rd=1.60 / psy-rdoq=2.30 / no-rd-refine / analysis-mode=0 / no-lossless / cbqpoffs=0 / crqpoffs=0 / rc=crf / crf=22.0 / qcomp=0.80 / qpstep=6 / stats-write=0 / stats-read=0 / vbv-maxrate=50000 / vbv-bufsize=50000 / vbv-init=0.9 / crf-max=0.0 / crf-min=0.0 / ipratio=1.50 / pbratio=1.00 / aq-mode=1 / aq-strength=0.20 / no-cutree / zone-count=0 / no-strict-cbr / qg-size=32 / no-rc-grain / qpmax=69 / qpmin=0 / sar=1 / overscan=0 / videoformat=5 / range=0 / colorprim=2 / transfer=2 / colormatrix=1 / chromaloc=0 / display-window=0 / max-cll=0,0 / min-luma=0 / max-luma=1023 / log2-max-poc-lsb=8 / vui-timing-info / vui-hrd-info / slices=1 / opt-qp-pps / opt-ref-list-length-pps / no-multi-pass-opt-rps / scenecut-bias=0.05 / no-opt-cu-delta-qp / no-aq-motion
Default                                  : Yes
Forced                                   : Yes
Color range                              : Limited
Matrix coefficients                      : BT.709

Audio #1
ID                                       : 2
Format                                   : AC-3
Format/Info                              : Audio Coding 3
Codec ID                                 : A_AC3
Duration                                 : 1 h 37 min
Bit rate mode                            : Constant
Bit rate                                 : 448 kb/s
Channel(s)                               : 6 channels
Channel positions                        : Front: L C R, Side: L R, LFE
Sampling rate                            : 48.0 kHz
Frame rate                               : 31.250 FPS (1536 SPF)
Bit depth                                : 16 bits
Compression mode                         : Lossy
Stream size                              : 311 MiB (8%)
Title                                    : НТН
Language                                 : Ukrainian
Service kind                             : Complete Main
Default                                  : Yes
Forced                                   : No

Audio #2
ID                                       : 3
Format                                   : AC-3
Format/Info                              : Audio Coding 3
Codec ID                                 : A_AC3
Duration                                 : 1 h 40 min
Bit rate mode                            : Constant
Bit rate                                 : 448 kb/s
Channel(s)                               : 6 channels
Channel positions                        : Front: L C R, Side: L R, LFE
Sampling rate                            : 48.0 kHz
Frame rate                               : 31.250 FPS (1536 SPF)
Bit depth                                : 16 bits
Compression mode                         : Lossy
Stream size                              : 322 MiB (9%)
Title                                    : Original
Language                                 : English
Service kind                             : Complete Main
Default                                  : No
Forced                                   : No

Text
ID                                       : 4
Format                                   : UTF-8
Codec ID                                 : S_TEXT/UTF8
Codec ID/Info                            : UTF-8 Plain Text
Duration                                 : 1 h 35 min
Bit rate                                 : 40 b/s
Count of elements                        : 954
Stream size                              : 28.7 KiB (0%)
Title                                    : Full
Language                                 : English
Default                                  : No
Forced                                   : No

Menu
00:00:00.000                             : en:Start
00:06:51.702                             : en:Fuller Stumbles
00:12:55.649                             : en:Detective McBain
00:19:57.321                             : en:Jane Fuller
00:28:39.634                             : en:Jason Whitney
00:36:42.909                             : en:Hall is Confronted
00:42:00.017                             : en:Consciousness Transfer
00:46:25.532                             : en:Download Completed
00:51:46.853                             : en:Grierson's Antique Store
00:59:19.472                             : en:Wilshire Grand Hotel
01:03:10.870                             : en:Connection Terminated
01:09:22.032                             : en:Tom Jones
01:17:07.164                             : en:Deja vu
01:22:25.982                             : en:Under Arrest
01:28:17.125                             : en:Douglas' Alibi
01:34:09.977                             : en:Grierson's Memory
Скріншоти




Джерело:
Особиста оцінка: 10 - без зайвих вагань рекомендую всім!


Срібний реліз (на рейтинг впливає 50% завантаженого)
 Трекер:    Зареєстрований   

Завантажити / скачати фільм українською



відео для новачків



 Зареєстрований:   2018-09-08 19:22
 Розмір:   3.65 GB 
 Оцінка фільму:   9.7/10 (Голосів: 7)
   
ImfromUkraine 
VIP


З нами з: 18.02.12
Востаннє: 16.10.18
Повідомлень: 330

2018-09-08 22:05  
добре кiно, хто не бачив - раджу)
karzan 
Новенький


З нами з: 01.09.08
Востаннє: 16.10.18
Повідомлень: 1

2018-09-08 22:43  
Навідь дуже добре Перегляну з українською озвучкою
Anоnymous 
Попереджень: 1
Попереджень: 1 


З нами з: 25.08.18
Востаннє: 17.10.18
Повідомлень: 203

2018-09-08 22:50  
тут пише що ця доріжка з браком https://toloka.to/t48425

Додано через 34 секунди:

тут https://toloka.to/t68243 озвучка ідентична цій?

Ваш часовий пояс: GMT + 2 Години

Нова тема   Відповісти