Життя / Life (2017) 1080p H.265 Ukr/Eng | Sub Ukr/Eng

Нові коментарі

Нова тема   Відповісти
Автор Повідомлення
-Star-Lord- 
VIP


З нами з: 09.08.18
Востаннє: 17.12.18
Повідомлень: 351

2018-09-08 18:15  
Життя / Life (2017) 1080p H.265 Ukr/Eng | Sub Ukr/Eng

Життя / Life (2017) 1080p H.265 Ukr/Eng | Sub Ukr/Eng


Жанр: трилер, жахи, фантастика
Країна: США



Кінокомпанія: Sony Pictures, Columbia Pictures, Skydance Productions
Режисер: Деніел Еспіноза
Актори: Джейк Джилленгол, Раян Рейнольдс, Ребекка Ферґюсон, Хіроюкі Санада, Еріон Бакаре, Ольга Диховічна, Наоко Морі, Олександр Нгуйен, Каміель Уоррен-Тейлор, Хіу Ун-Сін та інші

Сюжет:
Шість дослідників мешкають на міжнародній космічній станції. Їх метою є дізнатися, що принесе марсохід з поверхні Червоної планети. Це виявляється великим одноклітинним організмом, а значить, є життя поза Землею! Але все не так просто... Дослідження на станції привели до неймовірних наслідків – цей одноклітинний організм не такий простий. Якщо він потрапить на Землю, люди будуть в небезпеці.


Тривалість: 01:43:58
Якість:
Відео:
кодек: H.265 (HEVC)
розмір кадру: 1920 х 804
бітрейт: 4 075 кб/с
бітова глибина: 10 біт
Увага! Перед завантаженням переконайтесь, що ваш пристрій відтворення (та/або ПЗ) підтримує H.265 (HEVC)

Аудіо # 1:
мова: українська
переклад: професійний дубльований
кодек: 2.0
бітрейт: 192 кб/с

Аудіо # 2:
мова: англійська
переклад: оригінал
кодек: 5.1
бітрейт: 448 кб/с

Субтитри # 1-2:
мова: українська
тип: програмні (м'які)
формат: *.srt

Субтитри # 3-4:
мова: англійська
тип: програмні (м'які)
формат: *.srt


Info
Код:
General
Unique ID                                : 37900466824381724444318674351858459961 (0x1C835D4913FDC744B0F75E66407D2539)
Complete name                            : F:\Video\Life (2017) 1080p H.265 [UKR_ENG].
Format                                   :
Format version                           : Version 4 / Version 2
File size                                : 3.43 GiB
Duration                                 : 1 h 43 min
Overall bit rate                         : 4 718 kb/s
Movie name                               : Life (2017)
Encoded date                             : UTC 2018-09-06 09:43:21
Writing application                      : v20.0.0 ('I Am The Sun') 32-bit
Writing library                          : libebml v1.3.5 + v1.4.8
Cover                                    : Yes
Attachments                              : Cover.jpg

Video
ID                                       : 1
Format                                   : HEVC
Format/Info                              : High Efficiency Video Coding
Format profile                           : Main [email protected]@Main
Codec ID                                 : V_MPEGH/ISO/HEVC
Duration                                 : 1 h 43 min
Bit rate                                 : 4 075 kb/s
Width                                    : 1 920 pixels
Height                                   : 804 pixels
Display aspect ratio                     : 2.40:1
Frame rate mode                          : Constant
Frame rate                               : 23.976 (24000/1001) FPS
Color space                              : YUV
Chroma subsampling                       : 4:2:0
Bit depth                                : 10 bits
Bits/(Pixel*Frame)                       : 0.110
Stream size                              : 2.96 GiB (86%)
Writing library                          : x265 1.9:[Windows][GCC 4.9.2][64 bit] 10bit
Encoding settings                        : wpp / ctu=64 / min-cu-size=8 / max-tu-size=32 / tu-intra-depth=3 / tu-inter-depth=3 / me=3 / subme=4 / merange=57 / rect / amp / max-merge=4 / temporal-mvp / no-early-skip / rdpenalty=0 / no-tskip / no-tskip-fast / strong-intra-smoothing / no-lossless / no-cu-lossless / no-constrained-intra / no-fast-intra / open-gop / no-temporal-layers / interlace=0 / keyint=240 / min-keyint=24 / scenecut=40 / rc-lookahead=40 / lookahead-slices=0 / bframes=8 / bframe-bias=0 / b-adapt=2 / ref=5 / limit-refs=1 / limit-modes / weightp / weightb / aq-mode=1 / qg-size=32 / aq-strength=1.00 / cbqpoffs=0 / crqpoffs=0 / rd=6 / psy-rd=2.00 / rdoq-level=2 / psy-rdoq=1.00 / signhide / deblock / sao / no-sao-non-deblock / b-pyramid / cutree / no-intra-refresh / rc=crf / crf=16.3 / qcomp=0.60 / qpmin=0 / qpmax=51 / qpstep=4 / ipratio=1.40 / pbratio=1.30
Default                                  : Yes
Forced                                   : No
Color range                              : Limited
Color primaries                          : BT.709
Transfer characteristics                 : BT.709
Matrix coefficients                      : BT.709

Audio #1
ID                                       : 2
Format                                   : AC-3
Format/Info                              : Audio Coding 3
Codec ID                                 : A_AC3
Duration                                 : 1 h 43 min
Bit rate mode                            : Constant
Bit rate                                 : 192 kb/s
Channel(s)                               : 2 channels
Channel positions                        : Front: L R
Sampling rate                            : 48.0 kHz
Frame rate                               : 31.250 FPS (1536 SPF)
Bit depth                                : 16 bits
Compression mode                         : Lossy
Delay relative to video                  : -83 ms
Stream size                              : 143 MiB (4%)
Title                                    : 2.0 @ 192 kbps - DUB, iTunes
Language                                 : Ukrainian
Service kind                             : Complete Main
Default                                  : Yes
Forced                                   : Yes

Audio #2
ID                                       : 3
Format                                   : AC-3
Format/Info                              : Audio Coding 3
Codec ID                                 : A_AC3
Duration                                 : 1 h 43 min
Bit rate mode                            : Constant
Bit rate                                 : 448 kb/s
Channel(s)                               : 6 channels
Channel positions                        : Front: L C R, Side: L R, LFE
Sampling rate                            : 48.0 kHz
Frame rate                               : 31.250 FPS (1536 SPF)
Bit depth                                : 16 bits
Compression mode                         : Lossy
Delay relative to video                  : -83 ms
Stream size                              : 333 MiB (9%)
Title                                    : 5.1 @ 448 kbps - Original
Language                                 : English
Service kind                             : Complete Main
Default                                  : No
Forced                                   : No

Text #1
ID                                       : 4
Format                                   : UTF-8
Codec ID                                 : S_TEXT/UTF8
Codec ID/Info                            : UTF-8 Plain Text
Duration                                 : 1 h 33 min
Bit rate                                 : 1 b/s
Count of elements                        : 37
Stream size                              : 1.34 KiB (0%)
Title                                    : Forced
Language                                 : Ukrainian
Default                                  : Yes
Forced                                   : Yes

Text #2
ID                                       : 5
Format                                   : UTF-8
Codec ID                                 : S_TEXT/UTF8
Codec ID/Info                            : UTF-8 Plain Text
Duration                                 : 1 h 41 min
Bit rate                                 : 69 b/s
Count of elements                        : 1126
Stream size                              : 51.3 KiB (0%)
Title                                    : Full
Language                                 : Ukrainian
Default                                  : No
Forced                                   : No

Text #3
ID                                       : 6
Format                                   : UTF-8
Codec ID                                 : S_TEXT/UTF8
Codec ID/Info                            : UTF-8 Plain Text
Duration                                 : 49 min 18 s
Bit rate                                 : 0 b/s
Count of elements                        : 15
Stream size                              : 282 Bytes (0%)
Title                                    : Forced
Language                                 : English
Default                                  : No
Forced                                   : No

Text #4
ID                                       : 7
Format                                   : UTF-8
Codec ID                                 : S_TEXT/UTF8
Codec ID/Info                            : UTF-8 Plain Text
Duration                                 : 1 h 31 min
Bit rate                                 : 46 b/s
Count of elements                        : 1105
Stream size                              : 30.9 KiB (0%)
Title                                    : Full
Language                                 : English
Default                                  : No
Forced                                   : No

Menu
00:00:00.000                             : en:00:00:00.000
00:09:32.864                             : en:00:09:32.864
00:13:13.084                             : en:00:13:13.084
00:15:36.894                             : en:00:15:36.894
00:19:35.341                             : en:00:19:35.341
00:24:57.454                             : en:00:24:57.454
00:34:36.992                             : en:00:34:36.992
00:40:45.109                             : en:00:40:45.109
00:43:59.303                             : en:00:43:59.303
00:52:21.805                             : en:00:52:21.805
00:58:33.927                             : en:00:58:33.927
01:06:37.785                             : en:01:06:37.785
01:11:43.257                             : en:01:11:43.257
01:17:50.875                             : en:01:17:50.875
01:22:39.621                             : en:01:22:39.621
01:28:34.309                             : en:01:28:34.309
Скріншоти




Джерело:
Особиста оцінка: 10 - без зайвих вагань рекомендую всім!


 Трекер:    Зареєстрований   

Завантажити / скачати фільм українською



відео для новачків



 Зареєстрований:   2018-09-08 18:15
 Розмір:   3.43 GB 
 Оцінка фільму:   8.8/10 (Голосів: 12)
   
Інші релізи
   Життя / Life (2017) Remux 1080p Ukr/Eng | Sub Ukr/Eng staf777  5 / 0   20.71 GB   2018-01-09 15:15 
   Життя / Life (2017) 720p Ukr/Eng | Sub Ukr/Eng 11FrYkT  17 / 0   4.15 GB   2017-06-10 20:55 
   Життя / Life (2017) AVC Ukr/Eng | Sub Ukr/Eng Electroz  58 / 0   1.58 GB   2017-06-10 20:48 
   Життя / Life (2017) 1080p Ukr/Eng | Sub Ukr/Eng Electroz  9 / 0   10.81 GB   2017-06-09 21:42 
   Життя / Life (2017) Gelios  27 / 0   1.45 GB   2017-06-09 14:13 
evgenpavlenko 
Новенький


З нами з: 01.05.13
Востаннє: 09.12.18
Повідомлень: 5

2018-10-20 20:12  
Гівно, хоч і дуже дороге.
[email protected] 
Новенький


З нами з: 09.10.16
Востаннє: 15.12.18
Повідомлень: 1

2018-10-21 13:24  
Втрачений час на скачування та перегляд Sad (2)

evgenpavlenko написано:

Гівно, хоч і дуже дороге.
Сюжет шаблонний та примітивний. Автор сценарію має стільки ж інтелекту як і Калвіна персонаж даного "твору".

Дивно як головний антогоніст не розмножився як дощові черв'яки поділом лопатою.

У другій частині так і буде
Гівно рідкісне

gunnarukr 
VIP


З нами з: 07.01.15
Востаннє: 17.12.18
Повідомлень: 576

2018-10-21 13:45  
[email protected] написано:
Сюжет шаблонний та примітивний

Життя таке і є. Люди діють теж шаблонно та примітивно(в 99,9% випадках)

Ваш часовий пояс: GMT + 2 Години

Нова тема   Відповісти