Скайлайн / Skyline (2010) 1080p H.265 Ukr/Eng | Sub Fre

Нові коментарі

Нова тема   Відповісти
Останній раз роздавалося viva1970 (2018-12-18)
Автор Повідомлення
-Star-Lord- 
VIP


З нами з: 09.08.18
Востаннє: 18.12.18
Повідомлень: 355

2018-09-08 18:09  
Скайлайн / Skyline (2010) 1080p H.265 Ukr/Eng | Sub Fre

Скайлайн / Skyline (2010) 1080p H.265 Ukr/Eng | Sub Fre


Жанр: фантастика, триллер
Країна: США



Кінокомпанія: Black Monday Film Services - Hydraulx - Rat Entertainment
Режисер: Колін Штраус, Грег Штраус
Актори: Ерік Бальфур, Скоті Томпсон, Брітані Деніел, Крістал Рід, Ніл Хопкінс, Девід Зайас, Дональд Фейсон, Робін Гемел, Таня Ньюболд, Дж. Пол Бомер

Сюжет:
Після вечірки компанія друзів пробуджується від того, що у вікно вдаряє яскраве світло. Вони бачать, як людей на вулиці затягує в стовп світла, і вони піднімаються кудись вгору. Зразу після цього на планеті починається зачистка людей, що залишились. Тим, хто вижив, доведеться боротись за життя з інопланетними істотами.


Тривалість: 01:32:31
Якість:
Відео:
кодек: H.265 (HEVC)
розмір кадру: 1920 х 800
бітрейт: 2 428 кб/с
бітова глибина: 10 біт
Увага! Перед завантаженням переконайтесь, що ваш пристрій відтворення (та/або ПЗ) підтримує H.265 (HEVC)

Аудіо # 1:
мова: українська
переклад: професійний дубльований
кодек: 5.1
бітрейт: 448 кб/с

Аудіо # 2:
мова: англійська
переклад: оригінал
кодек: 5.1
бітрейт: 448 кб/с

Субтитри # 1-2:
мова: французька (Forced, Full)
тип: програмні (м'які)
формат: *.srt


Info
Код:
General
Unique ID                                : 247593889651250885806768807571910645945 (0xBA44D93EADFC72885F731918E65558B9)
Complete name                            : F:\Video\Skyline (2010) 1080p H.265 [UKR_ENG].
Format                                   :
Format version                           : Version 4 / Version 2
File size                                : 2.15 GiB
Duration                                 : 1 h 32 min
Overall bit rate                         : 3 325 kb/s
Movie name                               : Skyline (2010)
Encoded date                             : UTC 2018-09-08 00:49:09
Writing application                      : v20.0.0 ('I Am The Sun') 32-bit
Writing library                          : libebml v1.3.5 + v1.4.8
Cover                                    : Yes
Attachments                              : cover.jpg

Video
ID                                       : 1
Format                                   : HEVC
Format/Info                              : High Efficiency Video Coding
Format profile                           : Main [email protected]@Main
Codec ID                                 : V_MPEGH/ISO/HEVC
Duration                                 : 1 h 32 min
Bit rate                                 : 2 428 kb/s
Width                                    : 1 920 pixels
Height                                   : 800 pixels
Display aspect ratio                     : 2.40:1
Frame rate mode                          : Constant
Frame rate                               : 23.976 (24000/1001) FPS
Color space                              : YUV
Chroma subsampling                       : 4:2:0
Bit depth                                : 10 bits
Bits/(Pixel*Frame)                       : 0.066
Stream size                              : 1.57 GiB (73%)
Writing library                          : x265 1.9:[Windows][GCC 4.9.2][64 bit] 10bit
Encoding settings                        : wpp / ctu=64 / min-cu-size=8 / max-tu-size=32 / tu-intra-depth=2 / tu-inter-depth=2 / me=3 / subme=3 / merange=57 / rect / amp / max-merge=3 / temporal-mvp / no-early-skip / rdpenalty=0 / no-tskip / no-tskip-fast / strong-intra-smoothing / no-lossless / no-cu-lossless / no-constrained-intra / no-fast-intra / open-gop / no-temporal-layers / interlace=0 / keyint=240 / min-keyint=24 / scenecut=40 / rc-lookahead=30 / lookahead-slices=4 / bframes=8 / bframe-bias=0 / b-adapt=2 / ref=4 / limit-refs=2 / limit-modes / weightp / weightb / aq-mode=1 / qg-size=32 / aq-strength=1.00 / cbqpoffs=0 / crqpoffs=0 / rd=6 / psy-rd=2.00 / rdoq-level=2 / psy-rdoq=1.00 / signhide / deblock / sao / no-sao-non-deblock / b-pyramid / cutree / no-intra-refresh / rc=crf / crf=20.0 / qcomp=0.60 / qpmin=0 / qpmax=51 / qpstep=4 / ipratio=1.40 / pbratio=1.30
Default                                  : Yes
Forced                                   : No
Color range                              : Limited
Color primaries                          : BT.709
Transfer characteristics                 : BT.709
Matrix coefficients                      : BT.709

Audio #1
ID                                       : 2
Format                                   : AC-3
Format/Info                              : Audio Coding 3
Codec ID                                 : A_AC3
Duration                                 : 1 h 32 min
Bit rate mode                            : Constant
Bit rate                                 : 448 kb/s
Channel(s)                               : 6 channels
Channel positions                        : Front: L C R, Side: L R, LFE
Sampling rate                            : 48.0 kHz
Frame rate                               : 31.250 FPS (1536 SPF)
Bit depth                                : 16 bits
Compression mode                         : Lossy
Delay relative to video                  : 917 ms
Stream size                              : 296 MiB (13%)
Title                                    : Українська ( 5.1 384kbps - Дубляж)
Language                                 : Ukrainian
Service kind                             : Complete Main
Default                                  : Yes
Forced                                   : No

Audio #2
ID                                       : 3
Format                                   : E-AC-3
Format/Info                              : Enhanced Audio Coding 3
Codec ID                                 : A_EAC3
Duration                                 : 1 h 32 min
Bit rate mode                            : Constant
Bit rate                                 : 448 kb/s
Channel(s)                               : 6 channels
Channel positions                        : Front: L C R, Side: L R, LFE
Sampling rate                            : 48.0 kHz
Frame rate                               : 187.500 FPS (256 SPF)
Compression mode                         : Lossy
Delay relative to video                  : -5 ms
Stream size                              : 297 MiB (13%)
Title                                    : English 5.1 EAC3 448kbps 48khz 16bits
Language                                 : English
Service kind                             : Complete Main
Default                                  : No
Forced                                   : No

Text #1
ID                                       : 4
Format                                   : UTF-8
Codec ID                                 : S_TEXT/UTF8
Codec ID/Info                            : UTF-8 Plain Text
Duration                                 : 1 h 21 min
Bit rate                                 : 0 b/s
Count of elements                        : 5
Stream size                              : 196 Bytes (0%)
Title                                    : Forced
Language                                 : French
Default                                  : Yes
Forced                                   : Yes

Text #2
ID                                       : 5
Format                                   : UTF-8
Codec ID                                 : S_TEXT/UTF8
Codec ID/Info                            : UTF-8 Plain Text
Duration                                 : 1 h 26 min
Bit rate                                 : 23 b/s
Count of elements                        : 557
Stream size                              : 14.8 KiB (0%)
Title                                    : Full
Language                                 : French
Default                                  : No
Forced                                   : No
Скріншоти




Джерело:
Особиста оцінка: 0 - не дивився


 Трекер:    Зареєстрований   

Завантажити / скачати фільм українською



відео для новачків



 Зареєстрований:   2018-09-08 18:09
 Розмір:   2.15 GB 
 Оцінка фільму:   6.5/10 (Голосів: 4)
   
Інші релізи
   Скайлайн / Skyline (2010) Remux 1080p Ukr/Eng Dr.S  4 / 0   13.4 GB   2017-12-03 17:29 
   Скайлайн / Skyline (2010) 720p Ukr/Eng pohgejib  5 / 0   4.12 GB   2011-02-22 10:33 
Ваш часовий пояс: GMT + 2 Години

Нова тема   Відповісти