Капітан Алатрісте / Alatriste (2006) 720p 2xUkr/Spa | Sub Eng/Spa/Fre/Por

Нові коментарі

Нова тема   Відповісти
Автор Повідомлення
Anonymous 







2018-09-08 16:31  
Капітан Алатрісте / Alatriste (2006) 720p 2xUkr/Spa | Sub Eng/Spa/Fre/Por

Капітан Алатрісте / Alatriste (2006) 720p 2xUkr/Spa | Sub Eng/Spa/Fre/Por
Альтернативні постери та обкладинки:

кінотеатральний постер (сам фільм імовірно був у кінопрокаті російською):





Жанр: трилер, драма, мелодрама, пригодницький, військовий, історичний
Країна: Іспанія



Кінокомпанія: Estudios Picasso, Origen Producciones Cinematograficas S.A., NBC Universal Global Networks
Режисер: Агустин Діас Янес /Agustín Díaz Yanes
Актори: Вігго Мортенсен / Viggo Mortensen, Елена Анайа / Elena Anaya, Хав'єр Камара / Javier Cámara, Антоніо Дечент / Antonio Dechent, Хуан Ечанове / Juan Echanove, Едуард Фернандес / Eduard Fernández, Едуардо Норьєга / Eduardo Noriega, Аріадна Хіль / Ariadna Gil та інші.

Сюжет:
За однойменним романом відомого іспанського письменника Артуро Переса-Реверте. Іспанія. XVII століття. Капітан Дієго Алатрісте довгі роки віддано служить рідній країні. Хоробрий солдат воює у Фландрії. Але ось його кращий товариш Бальбоа потрапляє в пастку, спритно організовану ворогами. Друга Алатрісте важко ранять. На смертному одрі Бальбоа просить капітана подбати про свого сина Іньїго. Загартований у боях вояка не може відмовити в останньому проханні побратима, що помирає, він збирається і їде в Мадрид. Незважаючи на нові для себе обов'язки по опіці хлопчика, Алатрісте залишається вірним підданим іспанського короля, так що попереду у Дієго і його юного вихованця - багато бойових битв і небезпечних пригод.
Трейлер:


Вікова категорія: 16+

Тривалість: 02:25:04
Якість: 720p [ріп від SbR]
Відео:
кодек:
розмір кадру: 1280х692
бітрейт: 8601 кб/с [crf=17]

Аудіо # 1:
мова: українська
переклад: двоголосий закадровий | студія Контакт на замовлення 1+1
кодек: 5.1
бітрейт: 384 кб/с
ролі озвучили: Олег Лепенець і Ольга Радчук

Аудіо # 2:
мова: українська
переклад: багатоголосий закадровий
кодек: 5.1
бітрейт: 384 кб/с
ролі озвучили: Михайло Кришталь, ...

Аудіо # 3:
мова: іспанська
переклад: оригінал
кодек: 5.1
бітрейт: 640 кб/с

Субтитри # 1-5:
мова: англійська, іспанська, французька (форсовані, повні), португальська
тип: програмні (м'які)
формат: *.srt

Збережено оригінальні розділи, як на Blu-ray
Info
Код:
Complete name               : Alatriste (2006) [2xUkr,Spa sub.Eng,Spa,Fre,Por] 720p [Hurtom].
Format                      :
Format version              : Version 4
File size                   : 10.1 GiB
Duration                    : 2 h 25 min
Overall bit rate            : 10.0 Mb/s
Movie name                  : Капітан Алатрісте / Alatriste (2006) [2xUkr,Spa sub.Eng,Spa,Fre,Por] 720p [Hurtom]
Released date               : 2006
Encoded date                : UTC 2018-09-09 18:10:26
Writing application         : v26.0.0 ('In The Game') 64-bit
Writing library             : libebml v1.3.6 + v1.4.9
Cover                       : Yes
Comment                     : https://www.imdb.com/title/tt0395119/
Attachments                 : cover.jpg
DIRECTOR                    : Агустин Діас Янес /Agustín Díaz Yanes
GENRE                       : трилер, драма, мелодрама, пригодницький, військовий, історичний
SYNOPSIS                    : За однойменним романом відомого іспанського письменника Артуро Переса-Реверте. Іспанія. XVII століття. Капітан Дієго Алатрісте довгі роки віддано служить рідній країні. Хоробрий солдат воює у Фландрії. Але ось його кращий товариш Бальбоа потрапляє в пастку, спритно організовану ворогами. Друга Алатрісте важко ранять. На смертному одрі Бальбоа просить капітана подбати про свого сина Іньїго. Загартований у боях вояка не може відмовити в останньому проханні побратима, що помирає, він збирається і їде в Мадрид. Незважаючи на нові для себе обов'язки по опіці хлопчика, Алатрісте залишається вірним підданим іспанського короля, так що попереду у Дієго і його юного вихованця - багато бойових битв і небезпечних пригод...
Url                         : https://toloka.to/t94944

Video
ID                          : 1
Format                      : AVC
Format/Info                 : Advanced Video Codec
Format profile              : [email protected]
Format settings             : CABAC / 9 Ref Frames
Format settings, CABAC      : Yes
Format settings, ReFrames   : 9 frames
Codec ID                    : V_MPEG4/ISO/AVC
Duration                    : 2 h 25 min
Bit rate                    : 8 601 kb/s
Width                       : 1 280 pixels
Height                      : 692 pixels
Display aspect ratio        : 1.85:1
Frame rate mode             : Constant
Frame rate                  : 24.000 FPS
Color space                 : YUV
Chroma subsampling          : 4:2:0
Bit depth                   : 8 bits
Scan type                   : Progressive
Bits/(Pixel*Frame)          : 0.405
Stream size                 : 8.72 GiB (86%)
Title                       : Капітан Алатрісте / Alatriste (2006) 720p [SbR]
Writing library             : core 144 r2525kMod 40bb568
Encoding settings           : cabac=1 / ref=9 / deblock=1:-3:-3 / analyse=0x3:0x133 / me=umh / subme=11 / psy=1 / fade_compensate=0.00 / psy_rd=1.00:0.00 / mixed_ref=1 / me_range=32 / chroma_me=1 / trellis=2 / 8x8dct=1 / cqm=0 / deadzone=21,11 / fast_pskip=1 / chroma_qp_offset=-2 / threads=12 / lookahead_threads=3 / sliced_threads=0 / nr=0 / decimate=1 / interlaced=0 / bluray_compat=0 / constrained_intra=0 / fgo=0 / bframes=10 / b_pyramid=2 / b_adapt=2 / b_bias=0 / direct=3 / weightb=1 / open_gop=0 / weightp=2 / keyint=250 / keyint_min=24 / scenecut=40 / intra_refresh=0 / rc=crf / mbtree=0 / crf=17.0000 / qcomp=0.65 / qpmin=0 / qpmax=69 / qpstep=4 / ip_ratio=1.25 / pb_ratio=1.20 / aq=1:0.60
Language                    : Spanish
Default                     : Yes
Forced                      : No

Audio #1
ID                          : 2
Format                      : AC-3
Format/Info                 : Audio Coding 3
Commercial name             : Dolby Digital
Codec ID                    : A_AC3
Duration                    : 2 h 25 min
Bit rate mode               : Constant
Bit rate                    : 384 kb/s
Channel(s)                  : 6 channels
Channel layout              : L R C LFE Ls Rs
Sampling rate               : 48.0 kHz
Frame rate                  : 31.250 FPS (1536 SPF)
Bit depth                   : 16 bits
Compression mode            : Lossy
Stream size                 : 398 MiB (4%)
Title                       : DVO [studio Contact for 1+1] 5.1 384 Kbps
Language                    : Ukrainian
Service kind                : Complete Main
Default                     : Yes
Forced                      : Yes

Audio #2
ID                          : 3
Format                      : AC-3
Format/Info                 : Audio Coding 3
Commercial name             : Dolby Digital
Codec ID                    : A_AC3
Duration                    : 2 h 25 min
Bit rate mode               : Constant
Bit rate                    : 384 kb/s
Channel(s)                  : 6 channels
Channel layout              : L R C LFE Ls Rs
Sampling rate               : 48.0 kHz
Frame rate                  : 31.250 FPS (1536 SPF)
Bit depth                   : 16 bits
Compression mode            : Lossy
Stream size                 : 398 MiB (4%)
Title                       : MVO [TRK Ukraina] 5.1 384 Kbps
Language                    : Ukrainian
Service kind                : Complete Main
Default                     : No
Forced                      : No

Audio #3
ID                          : 4
Format                      : AC-3
Format/Info                 : Audio Coding 3
Commercial name             : Dolby Digital
Codec ID                    : A_AC3
Duration                    : 2 h 25 min
Bit rate mode               : Constant
Bit rate                    : 640 kb/s
Channel(s)                  : 6 channels
Channel layout              : L R C LFE Ls Rs
Sampling rate               : 48.0 kHz
Frame rate                  : 31.250 FPS (1536 SPF)
Bit depth                   : 16 bits
Compression mode            : Lossy
Stream size                 : 664 MiB (6%)
Title                       : Original, 5.1 640 Kbps
Language                    : Spanish
Service kind                : Complete Main
Default                     : No
Forced                      : No

Text #1
ID                          : 5
Format                      : UTF-8
Codec ID                    : S_TEXT/UTF8
Codec ID/Info               : UTF-8 Plain Text
Duration                    : 2 h 16 min
Bit rate                    : 33 b/s
Count of elements           : 1198
Stream size                 : 33.1 KiB (0%)
Title                       : Eng full
Language                    : English
Default                     : No
Forced                      : No

Text #2
ID                          : 6
Format                      : UTF-8
Codec ID                    : S_TEXT/UTF8
Codec ID/Info               : UTF-8 Plain Text
Duration                    : 2 h 16 min
Bit rate                    : 36 b/s
Count of elements           : 1197
Stream size                 : 36.6 KiB (0%)
Title                       : Spa full
Language                    : Spanish
Default                     : No
Forced                      : No

Text #3
ID                          : 7
Format                      : UTF-8
Codec ID                    : S_TEXT/UTF8
Codec ID/Info               : UTF-8 Plain Text
Duration                    : 2 h 2 min
Bit rate                    : 0 b/s
Count of elements           : 10
Stream size                 : 389 Bytes (0%)
Title                       : Fre Forced
Language                    : French
Default                     : No
Forced                      : No

Text #4
ID                          : 8
Format                      : UTF-8
Codec ID                    : S_TEXT/UTF8
Codec ID/Info               : UTF-8 Plain Text
Duration                    : 2 h 24 min
Bit rate                    : 31 b/s
Count of elements           : 1163
Stream size                 : 33.8 KiB (0%)
Title                       : Fre full
Language                    : French
Default                     : No
Forced                      : No

Text #5
ID                          : 9
Format                      : UTF-8
Codec ID                    : S_TEXT/UTF8
Codec ID/Info               : UTF-8 Plain Text
Duration                    : 2 h 16 min
Bit rate                    : 34 b/s
Count of elements           : 1221
Stream size                 : 34.2 KiB (0%)
Title                       : Por (BR) full
Language                    : Portuguese
Default                     : No
Forced                      : No

Menu
00:00:00.000                : fr:L 'Espagne du 17e siècle
00:01:19.958                : fr:Flandres, hiver 1622
00:09:09.500                : fr:Iñigo Balboa
00:13:01.083                : fr:L 'embuscade
00:18:34.500                : fr:Angélica de Alquézar
00:21:09.167                : fr:María de Castro
00:24:28.417                : fr:L 'arrestation
00:30:07.125                : fr:Liens de sang et d'amitié
00:34:39.417                : fr:Le comte-duc d'Olivares
00:40:32.167                : fr:Le siège de Breda
00:49:58.625                : fr:Madrid, 10 ans plus tard
00:55:01.833                : fr:L'or du roi
01:01:20.875                : fr:Les illusions de l'amour
01:04:11.083                : fr:Le recrutement
01:09:24.833                : fr:L'abordage du Niklaasbergen
01:17:03.208                : fr:Règlement de comptes
01:20:36.583                : fr:Les désirs d'Iñigo
01:26:29.083                : fr:Un collier pour une dame
01:31:36.208                : fr:Vivre dans le péché
01:40:08.500                : fr:Le guet-apens
01:46:08.042                : fr:Iñigo vs Malatesta
01:52:09.792                : fr:Le destin de María
01:57:10.875                : fr:La comtesse d'Olivares
02:01:14.958                : fr:Le retour d'Iñigo
02:03:54.000                : fr:Rocroi, mai 1643
02:09:22.583                : fr:La reddition
02:14:55.625                : fr:La gloire du tercio de Cartagène
02:17:09.667                : fr:Générique de fin
Порівняння скріншотів:

Оригінал <----------> Ріп




Джерело: &
Подяка SweetN та Hulk1987 за запис звуку з ТБ, _oles'ю за синхронізацію та Thefir за українізацію постера.


 Трекер:    Зареєстрований   

Завантажити / скачати фільм українською



відео для новачків



 Зареєстрований:   2018-09-09 22:14
 Розмір:   10.15 GB 
 Оцінка фільму:   10/10 (Голосів: 4)
 ЗАЛИШАЙТЕСЬ ЯКОМОГА ДОВШЕ НА РОЗДАЧІ. ЗАВАНТАЖИВ САМ - ДАЙ ЗАВАНТАЖИТИ ІНШИМ!
   
Інші релізи
bot 
робот


З нами з: 30.09.07
Востаннє: 26.05.05
Повідомлень: 19956

2018-09-09 22:14  
Тему перенесено з Анонси релізів до форуму Фільми в HD


igor911

Ваш часовий пояс: GMT + 2 Години

Нова тема   Відповісти